Firmware: A-410 [01 Apr. 2014] | A-400 [12 Mar. 2014] | C-300 [13 Feb. 2014] | A-300 [24 Feb. 2014] | C-200 [11 July 2013] | A-200/A-210 [11 July 2013] | Popbox V8 [3 Dec 2013]

Just got your NMT | WIKI has the answers | Search the forum | Forum Rules/Policy | Firmware & Official NMT News | Popcornhour manuals



User(s) browsing this thread: 1 Guest(s)
Post Reply 
MKV won't start - makemkv
03-04-2012, 11:03 PM (This post was last modified: 03-04-2012 11:33 PM by Jabes.)
Post: #1
MKV won't start - makemkv
Have ripped a blu ray using MakeMKV. It doesn't start on the popcorn.

I will try re-muxing to see if it helps, but wondered why it didn't work and if I can avoid problems during the ripping process. The only other blu ray I ripped (with the same software) plays fine.

Any ideas?

media-info shows:

Code:
General
Unique ID                                : 128418283427825032814936690903571441523 (0x609C7634FD24A21749BBF30FA0AF2773)
Complete name                            : Cars (2006).mkv
Format                                   : Matroska
Format version                           : Version 2
File size                                : 23.7 GiB
Duration                                 : 1h 56mn
Overall bit rate mode                    : Variable
Overall bit rate                         : 29.1 Mbps
Encoded date                             : UTC 2012-03-03 13:29:20
Writing application                      : MakeMKV v1.7.2 darwin(x86-release)
Writing library                          : libmakemkv v1.7.2 (1.2.0/1.1.0) darwin(x86-release)

Video
ID                                       : 1
Format                                   : AVC
Format/Info                              : Advanced Video Codec
Format profile                           : High@L4.1
Format settings, CABAC                   : Yes
Format settings, ReFrames                : 2 frames
Codec ID                                 : V_MPEG4/ISO/AVC
Duration                                 : 1h 56mn
Bit rate mode                            : Variable
Width                                    : 1 920 pixels
Height                                   : 1 080 pixels
Display aspect ratio                     : 16:9
Frame rate                               : 23.976 fps
Color space                              : YUV
Chroma subsampling                       : 4:2:0
Bit depth                                : 8 bits
Scan type                                : Progressive
Language                                 : English
Default                                  : Yes
Forced                                   : No

Audio #1
ID                                       : 2
Format                                   : TrueHD
Codec ID                                 : A_TRUEHD
Duration                                 : 1h 56mn
Bit rate mode                            : Variable
Maximum bit rate                         : 5 253 Kbps
Channel(s)                               : 6 channels
Channel positions                        : Front: L C R, Side: L R, LFE
Sampling rate                            : 48.0 KHz
Bit depth                                : 24 bits
Compression mode                         : Lossless
Title                                    : 5.1
Language                                 : English
Default                                  : Yes
Forced                                   : No

Audio #2
ID                                       : 3
Format                                   : AC-3
Format/Info                              : Audio Coding 3
Mode extension                           : CM (complete main)
Codec ID                                 : A_AC3
Duration                                 : 1h 56mn
Bit rate mode                            : Constant
Bit rate                                 : 640 Kbps
Channel(s)                               : 6 channels
Channel positions                        : Front: L C R, Side: L R, LFE
Sampling rate                            : 48.0 KHz
Bit depth                                : 16 bits
Compression mode                         : Lossy
Stream size                              : 534 MiB (2%)
Title                                    : 3/2+1
Language                                 : English
Default                                  : No
Forced                                   : No

Audio #3
ID                                       : 4
Format                                   : AC-3
Format/Info                              : Audio Coding 3
Mode extension                           : CM (complete main)
Codec ID                                 : A_AC3
Duration                                 : 1h 56mn
Bit rate mode                            : Constant
Bit rate                                 : 640 Kbps
Channel(s)                               : 6 channels
Channel positions                        : Front: L C R, Side: L R, LFE
Sampling rate                            : 48.0 KHz
Bit depth                                : 16 bits
Compression mode                         : Lossy
Stream size                              : 534 MiB (2%)
Title                                    : 3/2+1
Language                                 : English
Default                                  : No
Forced                                   : No

Audio #4
ID                                       : 5
Format                                   : AC-3
Format/Info                              : Audio Coding 3
Mode extension                           : CM (complete main)
Codec ID                                 : A_AC3
Duration                                 : 1h 56mn
Bit rate mode                            : Constant
Bit rate                                 : 192 Kbps
Channel(s)                               : 2 channels
Channel positions                        : Front: L R
Sampling rate                            : 48.0 KHz
Bit depth                                : 16 bits
Compression mode                         : Lossy
Stream size                              : 160 MiB (1%)
Title                                    : 2/0
Language                                 : English
Default                                  : No
Forced                                   : No

Audio #5
ID                                       : 6
Format                                   : AC-3
Format/Info                              : Audio Coding 3
Mode extension                           : CM (complete main)
Codec ID                                 : A_AC3
Duration                                 : 1h 56mn
Bit rate mode                            : Constant
Bit rate                                 : 192 Kbps
Channel(s)                               : 2 channels
Channel positions                        : Front: L R
Sampling rate                            : 48.0 KHz
Bit depth                                : 16 bits
Compression mode                         : Lossy
Stream size                              : 160 MiB (1%)
Title                                    : 2/0
Language                                 : English
Default                                  : No
Forced                                   : No

Text #1
ID                                       : 7
Format                                   : PGS
Codec ID                                 : S_HDMV/PGS
Codec ID/Info                            : The same subtitle format used on BDs/HD-DVDs
Language                                 : English
Default                                  : Yes
Forced                                   : No

Text #2
ID                                       : 9
Format                                   : PGS
Codec ID                                 : S_HDMV/PGS
Codec ID/Info                            : The same subtitle format used on BDs/HD-DVDs
Language                                 : English
Default                                  : No
Forced                                   : No

Text #3
ID                                       : 11
Format                                   : PGS
Codec ID                                 : S_HDMV/PGS
Codec ID/Info                            : The same subtitle format used on BDs/HD-DVDs
Language                                 : English
Default                                  : No
Forced                                   : No

Text #4
ID                                       : 13
Format                                   : PGS
Codec ID                                 : S_HDMV/PGS
Codec ID/Info                            : The same subtitle format used on BDs/HD-DVDs
Language                                 : English
Default                                  : No
Forced                                   : No

Menu
00:00:00.000                             : en:Chapter 00
00:09:27.692                             : en:Chapter 01
00:13:38.108                             : en:Chapter 02
00:16:09.134                             : en:Chapter 03
00:19:42.764                             : en:Chapter 04
00:24:23.170                             : en:Chapter 05
00:27:16.843                             : en:Chapter 06
00:28:02.055                             : en:Chapter 07
00:29:31.436                             : en:Chapter 08
00:33:47.567                             : en:Chapter 09
00:35:43.558                             : en:Chapter 10
00:41:40.456                             : en:Chapter 11
00:45:45.868                             : en:Chapter 12
00:48:30.324                             : en:Chapter 13
00:50:28.775                             : en:Chapter 14
00:54:30.475                             : en:Chapter 15
00:57:37.495                             : en:Chapter 16
01:01:19.050                             : en:Chapter 17
01:02:48.389                             : en:Chapter 18
01:05:32.553                             : en:Chapter 19
01:07:32.882                             : en:Chapter 20
01:09:39.091                             : en:Chapter 21
01:11:17.022                             : en:Chapter 22
01:14:51.236                             : en:Chapter 23
01:15:47.584                             : en:Chapter 24
01:20:03.924                             : en:Chapter 25
01:22:11.468                             : en:Chapter 26
01:24:48.583                             : en:Chapter 27
01:27:21.527                             : en:Chapter 28
01:32:26.791                             : en:Chapter 29
01:46:07.402                             : en:Chapter 30
01:48:21.620                             : en:Chapter 31

(03-04-2012 11:03 PM)Jabes Wrote:  Have ripped a blu ray using MakeMKV. It doesn't start on the popcorn.

After reading suggestions on here, I rebooted popcorn, and all is good. Wasted quite a bit of time to this!

Still, looks absolutely fantastic!
Find all posts by this user
Add Thank You Quote this message in a reply
Post Reply 


Messages In This Thread
MKV won't start - makemkv - Jabes - 03-04-2012 11:03 PM

Possibly Related Threads...
Thread: Author Replies: Views: Last Post
  MKV doesn't play on PopcornHour A110 Made with MakeMKV cantseemytoes 5 5,521 03-11-2011 06:13 PM
Last Post: cantseemytoes
  Avi's take ages to start playing/displaying embryo 4 1,585 07-06-2010 11:50 AM
Last Post: spawn
  [MKV] makemkv "failed to save title" theplowking 0 5,681 11-14-2009 11:38 AM
Last Post: theplowking
  MakeMKV and Bluerays BORIStheBLADE 7 3,128 07-19-2009 06:09 PM
Last Post: BORIStheBLADE
  Silence during 10 sec after the movie has start since 1mn SCOUBI 2 857 06-04-2009 01:33 PM
Last Post: SCOUBI
  HELP!! MKV blu-ray movie freezes while playing on PCH - Using Mediacoder & MakeMKV pglover19 10 4,384 05-29-2009 09:09 AM
Last Post: chris57
  Invalid format at the start of a video timthom2 3 1,078 05-16-2009 11:25 AM
Last Post: vis-tec
  Start blu-ray disc from directory structure boldy 2 5,412 03-14-2009 01:22 PM
Last Post: boldy
  Using MakeMKV for the PCH BORIStheBLADE 37 16,996 03-06-2009 05:37 AM
Last Post: gonzalu
  [H.264] Slow to start playing jackadam 0 759 02-03-2009 10:47 AM
Last Post: jackadam

Forum Jump: