Firmware: A-410 [01 Apr. 2014] | A-400 [12 Mar. 2014] | C-300 [13 Feb. 2014] | A-300 [24 Feb. 2014] | C-200 [11 July 2013] | A-200/A-210 [11 July 2013] | Popbox V8 [3 Dec 2013]

Just got your NMT | WIKI has the answers | Search the forum | Forum Rules/Policy | Firmware & Official NMT News | Popcornhour manuals



User(s) browsing this thread:
Thread Closed 
Cannot play some 1080p file
01-03-2010, 03:07 AM
Post: #1
Cannot play some 1080p file
I cannot play some 1080p files in PCH A110.
Here is the details of files please suggest what is the problem, The screen goes black and nothing happens.

----------------------------------------
General
Complete name : Duplicity.2009.BluRay.1080p.DTS.x264.dxva-xxxxxxx.mkv
Format : Matroska
File size : 9.64 GiB
Duration : 2h 5mn
Overall bit rate : 11.0 Mbps
Movie name : Duplicity.2009.BluRay.1080p.DTS.x264.dxva-xxxxx
Encoded date : UTC 2009-07-26 04:30:37
Writing application : mkvmerge v2.9.7 ('Tenderness') built on Jul 1 2009 18:43:35
Writing library : libebml v0.7.7 + libmatroska v0.8.1
Video
ID : 1
Format : AVC
Format/Info : Advanced Video Codec
Format profile : High@L4.1
Format settings, CABAC : Yes
Format settings, ReFrames : 5 frames
Muxing mode : Container profile=Unknown@4.1
Codec ID : V_MPEG4/ISO/AVC
Duration : 2h 4mn
Bit rate : 9 312 Kbps
Width : 1 920 pixels
Height : 800 pixels
Display aspect ratio : 2.40:1
Frame rate : 23.976 fps
Resolution : 24 bits
Colorimetry : 4:2:0
Scan type : Progressive
Bits/(Pixel*Frame) : 0.253
Stream size : 8.13 GiB (84%)
Title : x264 - crf encode
Writing library : x264 core 68 r1183M f21daff
Encoding settings : cabac=1 / ref=5 / deblock=1:-3:-3 / analyse=0x3:0x113 / me=umh / subme=9 / psy_rd=1.0:0.0 / mixed_ref=1 / me_range=64 / chroma_me=1 / trellis=2 / 8x8dct=1 / cqm=0 / deadzone=21,11 / chroma_qp_offset=-2 / threads=12 / nr=0 / decimate=1 / mbaff=0 / bframes=8 / b_pyramid=1 / b_adapt=1 / b_bias=0 / direct=3 / wpredb=1 / keyint=250 / keyint_min=25 / scenecut=40 / rc=crf / crf=20.0 / qcomp=0.60 / qpmin=10 / qpmax=51 / qpstep=4 / vbv_maxrate=50000 / vbv_bufsize=50000 / ip_ratio=1.40 / pb_ratio=1.30 / aq=1:0.80
Language : English

Audio
ID : 2
Format : DTS
Format/Info : Digital Theater Systems
Codec ID : A_DTS
Duration : 2h 5mn
Bit rate mode : Constant
Bit rate : 1 510 Kbps
Channel(s) : 6 channels
Channel positions : Front: L C R, Surround: L R, LFE
Sampling rate : 48.0 KHz
Resolution : 24 bits
Stream size : 1.32 GiB (14%)
Title : DTS - 1536 kbits/sec
Language : English

Text
ID : 3
Format : UTF-8
Codec ID : S_TEXT/UTF8
Codec ID/Info : UTF-8 Plain Text
Language : English

----------------------------------------
Complete name : breaking.and.entering.2006.1080p.bluray.x264-xxxxxx.mkv
Format : Matroska
File size : 8.15 GiB
Duration : 1h 58mn
Overall bit rate : 9 827 Kbps
Encoded date : UTC 2009-12-28 18:06:05
Writing application : mkvmerge v2.0.2 ('You're My Flame') built on Jul 3 2007 05:59:18
Writing library : libebml v0.7.7 + libmatroska v0.8.1

Video
ID : 1
Format : AVC
Format/Info : Advanced Video Codec
Format profile : High@L4.1
Format settings, CABAC : Yes
Format settings, ReFrames : 5 frames
Muxing mode : Container profile=Unknown@4.1
Codec ID : V_MPEG4/ISO/AVC
Duration : 1h 58mn
Bit rate : 8 736 Kbps
Nominal bit rate : 8 928 Kbps
Width : 1 920 pixels
Height : 816 pixels
Display aspect ratio : 2.35:1
Frame rate : 23.976 fps
Resolution : 24 bits
Colorimetry : 4:2:0
Scan type : Progressive
Bits/(Pixel*Frame) : 0.233
Stream size : 7.24 GiB (89%)
Writing library : x264 core 65 r999 cc51047
Encoding settings : cabac=1 / ref=5 / deblock=1:0:0 / analyse=0x3:0x133 / me=umh / subme=7 / psy_rd=1.0:0.0 / mixed_ref=1 / me_range=16 / chroma_me=1 / trellis=1 / 8x8dct=1 / cqm=0 / deadzone=21,11 / chroma_qp_offset=-2 / threads=3 / nr=0 / decimate=1 / mbaff=0 / bframes=3 / b_pyramid=1 / b_adapt=1 / b_bias=0 / direct=1 / wpredb=1 / keyint=250 / keyint_min=25 / scenecut=40(pre) / rc=2pass / bitrate=8928 / ratetol=1.0 / qcomp=0.60 / qpmin=10 / qpmax=51 / qpstep=4 / cplxblur=20.0 / qblur=0.5 / ip_ratio=1.40 / pb_ratio=1.30 / aq=1:1.00
Language : English

Audio #1
ID : 2
Format : AC-3
Format/Info : Audio Coding 3
Codec ID : A_AC3
Duration : 1h 58mn
Bit rate mode : Constant
Bit rate : 640 Kbps
Channel(s) : 6 channels
Channel positions : Front: L C R, Surround: L R, LFE
Sampling rate : 48.0 KHz
Stream size : 544 MiB (7%)

Audio #2
ID : 3
Format : AC-3
Format/Info : Audio Coding 3
Codec ID : A_AC3
Duration : 1h 58mn
Bit rate mode : Constant
Bit rate : 256 Kbps
Channel(s) : 2 channels
Channel positions : L R
Sampling rate : 48.0 KHz
Video delay : 120ms
Stream size : 218 MiB (3%)
Title : Lektor
Language : Polish

Text #1
ID : 4
Format : UTF-8
Codec ID : S_TEXT/UTF8
Codec ID/Info : UTF-8 Plain Text
Language : Polish

Text #2
ID : 5
Format : UTF-8
Codec ID : S_TEXT/UTF8
Codec ID/Info : UTF-8 Plain Text
Language : English
----------------------------------------

------------------------------------------------------------------------
[Image: 20415010529.jpg]

PCH A-110, SHARP AQUOS LC-37GX2W
PCH A-110, EPSON DREAMIO TW600
Find all posts by this user
01-03-2010, 03:13 AM
Post: #2
RE: Cannot play some 1080p file
Did you reboot the device before trying ? if not please do and test again.

Are you playing these from the normal NMT menu, or through YAMJ ?

Living room: C200/A200/A100 HDMI to Pioneer KURO KRP-500A plasma / Denon AVR 3808 / KEF 5005.2 / B&W DM685
Kids room: C200/A110 HDMI to Panasonic 42PZ85, Optical to Logitech Z5500.


PLEASE READ THE WIKI
Find all posts by this user
01-03-2010, 03:23 AM (This post was last modified: 01-03-2010 03:23 AM by bhelpuri.)
Post: #3
RE: Cannot play some 1080p file
yep many times no improvements, also it is kind of hang in the same state untill I kill the process "mono" from telenet. I am not using YAMJ, it is through normal menu.

------------------------------------------------------------------------
[Image: 20415010529.jpg]

PCH A-110, SHARP AQUOS LC-37GX2W
PCH A-110, EPSON DREAMIO TW600
Find all posts by this user
01-03-2010, 03:55 AM
Post: #4
RE: Cannot play some 1080p file
I believe this "Format settings, ReFrames : 5 frames"
is a no,no for the PCH.
Find all posts by this user
01-03-2010, 10:19 AM
Post: #5
RE: Cannot play some 1080p file
hi primetimeguy,
thanks for the info, are you sure about it. I think it is for CABAC, I am not sure but it should not have any effect on playback. Can anybody clarify it?

(01-03-2010 03:55 AM)primetimeguy Wrote:  I believe this "Format settings, ReFrames : 5 frames"
is a no,no for the PCH.

------------------------------------------------------------------------
[Image: 20415010529.jpg]

PCH A-110, SHARP AQUOS LC-37GX2W
PCH A-110, EPSON DREAMIO TW600
Find all posts by this user
01-03-2010, 04:14 PM (This post was last modified: 01-03-2010 04:17 PM by primetimeguy.)
Post: #6
RE: Cannot play some 1080p file
(01-03-2010 10:19 AM)bhelpuri Wrote:  hi primetimeguy,
thanks for the info, are you sure about it. I think it is for CABAC, I am not sure but it should not have any effect on playback. Can anybody clarify it?

Ya, I'm sure.....see here.

http://www.networkedmediatank.com/showth...?tid=32141

Your files are CABAC 5 ref frames in mkv container.
Find all posts by this user
Thread Closed 


Possibly Related Threads...
Thread: Author Replies: Views: Last Post
  [Bug] problem to play .avi Baniko 0 1,214 11-28-2011 06:45 PM
Last Post: Baniko
  [Feature] Select All in the File menu trnsltr 2 1,738 09-05-2011 03:08 PM
Last Post: trnsltr
  [A-110 & A-100] Don't play 1080p mkvs after a while (reboot needed) andromo 366 176,339 08-15-2011 10:41 AM
Last Post: azerty
  PCH interrupts MP3 play dw_bobby 0 1,211 06-04-2011 05:59 PM
Last Post: dw_bobby
Music Audio (i.e. CD) iso wont play (does not mount) MANOTTAS 0 1,797 05-24-2011 05:29 PM
Last Post: MANOTTAS
  Karaoke mp3 / CDG file playback trotsky10 32 16,575 05-08-2011 09:25 PM
Last Post: fetster
  [A 110] 1080p mkv no more correctly playing over network elche99 2 2,157 05-05-2011 05:43 AM
Last Post: steagle
  hidden .file and not showing up fadafwet 0 1,145 04-08-2011 03:22 AM
Last Post: fadafwet
  can't play anything over the network [A100] boomshnka 0 1,348 03-06-2011 10:16 PM
Last Post: boomshnka
  Can't play a whole audio album anymore allweneed 1 1,223 02-20-2011 07:13 PM
Last Post: allweneed

Forum Jump: