Firmware: A-410 [01 Apr. 2014] | A-400 [12 Mar. 2014] | C-300 [13 Feb. 2014] | A-300 [24 Feb. 2014] | C-200 [11 July 2013] | A-200/A-210 [11 July 2013] | Popbox V8 [3 Dec 2013]

Just got your NMT | WIKI has the answers | Search the forum | Forum Rules/Policy | Firmware & Official NMT News | Popcornhour manuals



User(s) browsing this thread: 1 Guest(s)
Thread Closed 
[MP4] Video stops, but audio continues.
12-31-2008, 08:20 PM
Post: #1
[MP4] Video stops, but audio continues.
I have a strange problem. I am trying to run an MP4 file i 1080p that is an hour long. About 5 minutes in the picture freezes but the audio continues. I have also tried 2 other files and they get skipped frames. All 3 files are generated from a video editing software that i have and now i am wondering if there is some problem with the enconding. Below is the MediaInfo for the file that is experiencing the video freeze:

General
Complete name : Norge Show v 3.0.mp4
Format : MPEG-4
Format profile : Base Media
Codec ID : isom
File size : 1.92 GiB
Duration : 1h 0mn
Overall bit rate : 4 568 Kbps
Encoded date : UTC 2008-12-29 03:58:30
Tagged date : UTC 2008-12-29 03:58:30

Video
Format : AVC
Format/Info : Advanced Video Codec
Format profile : High@L4.1
Format settings, CABAC : Yes
Format settings, ReFrames : 3 frames
Codec ID : avc1
Codec ID/Info : Advanced Video Coding
Duration : 1h 0mn
Bit rate mode : Variable
Bit rate : 4 390 Kbps
Maximum bit rate : 29.3 Mbps
Width : 1 620 pixels
Height : 1 080 pixels
Display aspect ratio : 1.500
Frame rate mode : Constant
Frame rate : 29.970 fps
Resolution : 24 bits
Colorimetry : 4:2:0
Scan type : Progressive
Bits/(Pixel*Frame) : 0.084
Stream size : 1.85 GiB (96%)
Writing library : x264 core 58
Encoding settings : cabac=1 / ref=3 / deblock=1:-1:-1 / analyse=0x3:0x113 / me=umh / subme=5 / brdo=0 / mixed_ref=1 / me_range=16 / chroma_me=1 / trellis=2 / 8x8dct=1 / cqm=0 / deadzone=21,11 / chroma_qp_offset=0 / threads=3 / nr=0 / decimate=1 / mbaff=0 / bframes=3 / b_pyramid=0 / b_adapt=1 / b_bias=0 / direct=3 / wpredb=1 / bime=1 / keyint=250 / keyint_min=25 / scenecut=40(pre) / rc=crf / crf=20.0 / rceq='blurCplx^(1-qComp)' / qcomp=0.50 / qpmin=10 / qpmax=51 / qpstep=4 / vbv_maxrate=40000 / vbv_bufsize=40000 / ip_ratio=1.10 / pb_ratio=1.10
Encoded date : UTC 2008-12-28 21:53:57
Tagged date : UTC 2008-12-29 04:01:13

Audio
Format : AAC
Format/Info : Advanced Audio Codec
Format version : Version 4
Format profile : LC
Format settings, SBR : No
Codec ID : 40
Duration : 1h 0mn
Bit rate mode : Variable
Bit rate : 175 Kbps
Maximum bit rate : 343 Kbps
Channel(s) : 2 channels
Channel positions : L R
Sampling rate : 44.1 KHz
Resolution : 16 bits
Stream size : 75.6 MiB (4%)
Encoded date : UTC 2008-12-29 04:00:46
Tagged date : UTC 2008-12-29 04:01:13
[/quote]
Find all posts by this user
Thread Closed 


Possibly Related Threads...
Thread: Author Replies: Views: Last Post
  A-110 random pink colors on video playback Pustule 5 753 11-23-2013 07:27 AM
Last Post: Willem53
  MKV audio file changes automatically during playback alopez1986 1 977 08-25-2013 11:41 AM
Last Post: alopez1986
  A110 Can't Play Video Files Through Jukebox Overlay gamenlegend 1 876 08-22-2013 12:52 PM
Last Post: gamenlegend
  Video jukebox/playlist for the a-100 mikedk2100 1 1,676 08-19-2013 02:38 PM
Last Post: Mboss
  PCH A110 - cant play youtube video cimentocola 3 2,012 06-23-2013 01:44 PM
Last Post: VideoRipper
  Which video format supports DVD menus? Haben 4 2,238 03-15-2013 09:38 PM
Last Post: Haben
  No Sound or Video IUFGN 4 1,526 01-11-2013 08:02 AM
Last Post: IUFGN
Question [M4V] remove DRM from iTunes video sTyLeS 9 6,001 01-11-2013 03:36 AM
Last Post: fischer24
  video with remux AAC to AC3: file played once, then refuses to play any other file cpbox 0 1,878 12-13-2012 10:00 AM
Last Post: cpbox
  Stream video from Dreambox Mirax 0 1,545 12-04-2012 01:59 PM
Last Post: Mirax

Forum Jump: