Firmware: A-410 [01 Apr. 2014] | A-400 [12 Mar. 2014] | C-300 [13 Feb. 2014] | A-300 [24 Feb. 2014] | C-200 [11 July 2013] | A-200/A-210 [11 July 2013] | Popbox V8 [3 Dec 2013]

Just got your NMT | WIKI has the answers | Search the forum | Forum Rules/Policy | Firmware & Official NMT News | Popcornhour manuals



User(s) browsing this thread: 1 Guest(s)
Thread Closed 
Video TS won't play Mediainfo Included
01-09-2010, 05:58 PM
Post: #1
Video TS won't play Mediainfo Included
I have been ripping DVDs to my WHS for the past week to access with my PCH A-100, for the most part they seem to be working well. I am using DVDFab to rip the main movie. Most seem to be playing well but I have only tried about 35, below is one of the movies I am having problems with, the individual VOB files play fine on WMP. When I select using YAMJ it shows the PCH screen and then goes black and stays that way requiring a pull of the plug.

General
Complete name : \\Bartserver\Videos\DVDs\Movies\HOCUS_POCUS\VIDEO_TS\VIDEO_TS.BUP
Format : DVD Video
Format profile : Menu
File size : 6.00 KiB

Video
ID : 0xE0
Format : MPEG Video
Format version : Version 2
Bit rate mode : Variable
Width : 720 pixels
Height : 480 pixels
Display aspect ratio : 4:3
Frame rate : 29.970 fps
Standard : NTSC

General
Complete name : \\Bartserver\Videos\DVDs\Movies\HOCUS_POCUS\VIDEO_TS\VIDEO_TS.IFO
Format : DVD Video
Format profile : Menu
File size : 6.00 KiB

Video
ID : 0xE0
Format : MPEG Video
Format version : Version 2
Bit rate mode : Variable
Width : 720 pixels
Height : 480 pixels
Display aspect ratio : 4:3
Frame rate : 29.970 fps
Standard : NTSC

General
Complete name : \\Bartserver\Videos\DVDs\Movies\HOCUS_POCUS\VIDEO_TS\VTS_01_0.BUP
Format : DVD Video
Format profile : Program
File size : 62.0 KiB

Video
ID : 0xE0
Format : MPEG Video
Format version : Version 2
Bit rate mode : Variable
Width : 720 pixels
Height : 480 pixels
Display aspect ratio : 4:3
Frame rate : 29.970 fps
Standard : NTSC

Audio
ID : 0x80
Format : AC-3
Format/Info : Audio Coding 3
Channel(s) : 6 channels
Sampling rate : 48.0 KHz
Language : English

Menu
List (Audio) : 0

General
Complete name : \\Bartserver\Videos\DVDs\Movies\HOCUS_POCUS\VIDEO_TS\VTS_01_0.IFO
Format : DVD Video
Format profile : Program
File size : 62.0 KiB

Video
ID : 0xE0
Format : MPEG Video
Format version : Version 2
Bit rate mode : Variable
Width : 720 pixels
Height : 480 pixels
Display aspect ratio : 4:3
Frame rate : 29.970 fps
Standard : NTSC

Audio
ID : 0x80
Format : AC-3
Format/Info : Audio Coding 3
Channel(s) : 6 channels
Sampling rate : 48.0 KHz
Language : English

Menu
List (Audio) : 0

General
Complete name : \\Bartserver\Videos\DVDs\Movies\HOCUS_POCUS\VIDEO_TS\VTS_01_1.VOB
Format : MPEG-PS
File size : 1 024 MiB
Duration : 2mn 50s
Overall bit rate : 50.4 Mbps

Video
ID : 224 (0xE0)
Format : MPEG Video
Format version : Version 2
Format profile : Main@Main
Format settings, BVOP : Yes
Format settings, Matrix : Default
Duration : 2mn 50s
Bit rate mode : Variable
Bit rate : 48.1 Mbps
Width : 720 pixels
Height : 480 pixels
Display aspect ratio : 4:3
Frame rate : 29.970 fps
Standard : NTSC
Resolution : 8 bits
Colorimetry : 4:2:0
Bits/(Pixel*Frame) : 4.640
Stream size : 976 MiB (95%)

Audio
ID : 128 (0x80)
Format : AC-3
Format/Info : Audio Coding 3
Duration : 2mn 49s
Bit rate mode : Constant
Bit rate : 384 Kbps
Channel(s) : 6 channels
Channel positions : Front: L C R, Surround: L R, LFE
Sampling rate : 48.0 KHz
Stream size : 7.78 MiB (1%)

Text
ID : 224 (0xE0)-DVD-1
Format : EIA-608
Muxing mode : MPEG Video / DVD-Video
Muxing mode, more info : Muxed in Video #1
Stream size : 0.00 Byte (0%)

Menu

General
Complete name : \\Bartserver\Videos\DVDs\Movies\HOCUS_POCUS\VIDEO_TS\VTS_01_2.VOB
Format : MPEG-PS
File size : 1 024 MiB
Duration : 23mn 15s
Overall bit rate : 6 157 Kbps

Video
ID : 224 (0xE0)
Format : MPEG Video
Format version : Version 2
Format profile : Main@Main
Format settings, BVOP : Yes
Format settings, Matrix : Default
Duration : 23mn 15s
Bit rate mode : Variable
Bit rate : 5 528 Kbps
Width : 720 pixels
Height : 480 pixels
Display aspect ratio : 4:3
Frame rate : 29.970 fps
Standard : NTSC
Resolution : 8 bits
Colorimetry : 4:2:0
Bits/(Pixel*Frame) : 0.534
Stream size : 919 MiB (90%)

Audio
ID : 128 (0x80)
Format : AC-3
Format/Info : Audio Coding 3
Duration : 23mn 15s
Bit rate mode : Constant
Bit rate : 384 Kbps
Channel(s) : 6 channels
Channel positions : Front: L C R, Surround: L R, LFE
Sampling rate : 48.0 KHz
Video delay : -767ms
Stream size : 63.9 MiB (6%)

Text
ID : 224 (0xE0)-DVD-1
Format : EIA-608
Muxing mode : MPEG Video / DVD-Video
Muxing mode, more info : Muxed in Video #1
Stream size : 0.00 Byte (0%)

Menu

General
Complete name : \\Bartserver\Videos\DVDs\Movies\HOCUS_POCUS\VIDEO_TS\VTS_01_3.VOB
Format : MPEG-PS
File size : 1 024 MiB
Duration : 22mn 38s
Overall bit rate : 6 321 Kbps

Video
ID : 224 (0xE0)
Format : MPEG Video
Format version : Version 2
Format profile : Main@Main
Format settings, BVOP : Yes
Format settings, Matrix : Default
Duration : 22mn 38s
Bit rate mode : Variable
Bit rate : 5 686 Kbps
Width : 720 pixels
Height : 480 pixels
Display aspect ratio : 4:3
Frame rate : 29.970 fps
Standard : NTSC
Resolution : 8 bits
Colorimetry : 4:2:0
Bits/(Pixel*Frame) : 0.549
Stream size : 921 MiB (90%)

Audio
ID : 128 (0x80)
Format : AC-3
Format/Info : Audio Coding 3
Duration : 22mn 38s
Bit rate mode : Constant
Bit rate : 384 Kbps
Channel(s) : 6 channels
Channel positions : Front: L C R, Surround: L R, LFE
Sampling rate : 48.0 KHz
Video delay : -712ms
Stream size : 62.2 MiB (6%)

Text
ID : 224 (0xE0)-DVD-1
Format : EIA-608
Muxing mode : MPEG Video / DVD-Video
Muxing mode, more info : Muxed in Video #1
Stream size : 0.00 Byte (0%)

Menu

General
Complete name : \\Bartserver\Videos\DVDs\Movies\HOCUS_POCUS\VIDEO_TS\VTS_01_4.VOB
Format : MPEG-PS
File size : 1 024 MiB
Duration : 2mn 41s
Overall bit rate : 53.3 Mbps

Video
ID : 224 (0xE0)
Format : MPEG Video
Format version : Version 2
Format profile : Main@Main
Format settings, BVOP : Yes
Format settings, Matrix : Default
Duration : 2mn 41s
Bit rate mode : Variable
Bit rate : 50.8 Mbps
Width : 720 pixels
Height : 480 pixels
Display aspect ratio : 4:3
Frame rate : 29.970 fps
Standard : NTSC
Resolution : 8 bits
Colorimetry : 4:2:0
Bits/(Pixel*Frame) : 4.901
Stream size : 976 MiB (95%)

Audio
ID : 128 (0x80)
Format : AC-3
Format/Info : Audio Coding 3
Duration : 2mn 41s
Bit rate mode : Constant
Bit rate : 384 Kbps
Channel(s) : 6 channels
Channel positions : Front: L C R, Surround: L R, LFE
Sampling rate : 48.0 KHz
Video delay : -374ms
Stream size : 7.38 MiB (1%)

Text
ID : 224 (0xE0)-DVD-1
Format : EIA-608
Muxing mode : MPEG Video / DVD-Video
Muxing mode, more info : Muxed in Video #1
Stream size : 0.00 Byte (0%)

Menu

General
Complete name : \\Bartserver\Videos\DVDs\Movies\HOCUS_POCUS\VIDEO_TS\VTS_01_5.VOB
Format : MPEG-PS
File size : 197 MiB

Video
ID : 224 (0xE0)
Format : MPEG Video
Format version : Version 2
Format profile : Main@Main
Format settings, BVOP : Yes
Format settings, Matrix : Default
Bit rate mode : Variable
Bit rate : 5 502 Kbps
Width : 720 pixels
Height : 480 pixels
Display aspect ratio : 4:3
Frame rate : 29.970 fps
Standard : NTSC
Resolution : 8 bits
Colorimetry : 4:2:0
Bits/(Pixel*Frame) : 0.531

Audio
ID : 128 (0x80)
Format : AC-3
Format/Info : Audio Coding 3
Bit rate mode : Constant
Bit rate : 384 Kbps
Channel(s) : 6 channels
Channel positions : Front: L C R, Surround: L R, LFE
Sampling rate : 48.0 KHz
Video delay : -517ms

Menu
Find all posts by this user
Thread Closed 


Possibly Related Threads...
Thread: Author Replies: Views: Last Post
  A-110 random pink colors on video playback Pustule 5 774 11-23-2013 07:27 AM
Last Post: Willem53
Question AVI - A100 Can't play this type of file frenger 0 807 09-10-2013 06:51 AM
Last Post: frenger
  A110 Can't Play Video Files Through Jukebox Overlay gamenlegend 1 899 08-22-2013 12:52 PM
Last Post: gamenlegend
  Video jukebox/playlist for the a-100 mikedk2100 1 1,682 08-19-2013 02:38 PM
Last Post: Mboss
  PCH A110 - cant play youtube video cimentocola 3 2,037 06-23-2013 01:44 PM
Last Post: VideoRipper
  Which video format supports DVD menus? Haben 4 2,269 03-15-2013 09:38 PM
Last Post: Haben
  VIDEO_TS folders wont play iamloco724@aol.com 8 2,583 02-12-2013 10:10 PM
Last Post: swearm
  No Sound or Video IUFGN 4 1,547 01-11-2013 08:02 AM
Last Post: IUFGN
Question [M4V] remove DRM from iTunes video sTyLeS 9 6,039 01-11-2013 03:36 AM
Last Post: fischer24
  video with remux AAC to AC3: file played once, then refuses to play any other file cpbox 0 1,896 12-13-2012 10:00 AM
Last Post: cpbox

Forum Jump: