Firmware: A-410 [01 Apr. 2014] | A-400 [12 Mar. 2014] | C-300 [13 Feb. 2014] | A-300 [24 Feb. 2014] | C-200 [11 July 2013] | A-200/A-210 [11 July 2013] | Popbox V8 [3 Dec 2013]

Just got your NMT | WIKI has the answers | Search the forum | Forum Rules/Policy | Firmware & Official NMT News | Popcornhour manuals



User(s) browsing this thread: 1 Guest(s)
Thread Closed 
EG-M32B File could not Play
09-01-2010, 10:03 AM (This post was last modified: 09-01-2010 10:05 AM by manish26264.)
Post: #1
EG-M32B File could not Play
I recently purchased EG-M32B model, I also use Xtremer media player, I purchased this model for DTS HD and DD True HD, I am glad that this model pass through both the sound format. But while testing I found that certain files do not play, this file could be played on xtreamer. the media info is below. Also found that in certain file the sound goes away after 15 - 20 seconds and the video shutters. I also updated the player to the latest firmware available.

Media Info:

Complete name : Minority Report 2002 1080p BluRay DTS x264.mkv
Format : Matroska
File size : 19.8 GiB
Duration : 2h 25mn
Overall bit rate : 19.5 Mbps
Encoded date : UTC 2010-04-30 17:04:30
Writing application : mkvmerge v2.9.8 ('C'est le bon') built on Aug 13 2009 12:49:06
Writing library : libebml v0.7.7 + libmatroska v0.8.1

Video
ID : 1
Format : AVC
Format/Info : Advanced Video Codec
Format profile : High@L4.1
Format settings, CABAC : Yes
Format settings, ReFrames : 5 frames
Muxing mode : Container profile=Unknown@4.1
Codec ID : V_MPEG4/ISO/AVC
Duration : 2h 25mn
Bit rate : 17.6 Mbps
Nominal bit rate : 18.0 Mbps
Width : 1 920 pixels
Height : 802 pixels
Display aspect ratio : 2.35:1
Frame rate : 23.976 fps
Resolution : 24 bits
Colorimetry : 4:2:0
Scan type : Progressive
Bits/(Pixel*Frame) : 0.477
Stream size : 17.9 GiB (90%)
Title : 18000 kbps
Writing library : x264 core 84 r1400M 20fa784
Encoding settings : cabac=1 / ref=5 / deblock=1:-3:-3 / analyse=0x3:0x133 / me=esa / subme=10 / psy=1 / psy_rd=0.9:0.0 / mixed_ref=1 / me_range=32 / chroma_me=1 / trellis=2 / 8x8dct=1 / cqm=0 / deadzone=21,11 / fast_pskip=0 / chroma_qp_offset=-2 / threads=12 / sliced_threads=0 / nr=0 / decimate=0 / mbaff=0 / constrained_intra=0 / bframes=6 / b_pyramid=2 / b_adapt=2 / b_bias=0 / direct=3 / wpredb=1 / wpredp=2 / keyint=250 / keyint_min=25 / scenecut=40 / intra_refresh=0 / rc_lookahead=40 / rc=2pass / mbtree=1 / bitrate=18000 / ratetol=1.0 / qcomp=0.60 / qpmin=10 / qpmax=51 / qpstep=4 / cplxblur=20.0 / qblur=0.5 / ip_ratio=1.40 / aq=1:1.00 / pulldown=0 / nal_hrd=0
Language : English

Audio
ID : 2
Format : DTS
Format/Info : Digital Theater Systems
Codec ID : A_DTS
Duration : 2h 25mn
Bit rate mode : Constant
Bit rate : 1 510 Kbps
Channel(s) : 6 channels
Channel positions : Front: L C R, Surround: L R, LFE
Sampling rate : 48.0 KHz
Resolution : 24 bits
Stream size : 1.53 GiB (8%)
Title : Main Audio
Language : English

Will I be able to play this file? Will post Details of file which shutters and audio goes away.
Find all posts by this user
Thread Closed 


Possibly Related Threads...
Thread: Author Replies: Views: Last Post
  HDX-1000 file dates all 01/01/2000 jonathancam 1 487 01-20-2014 07:32 PM
Last Post: jonathancam
  Kaiboer K200- No play mov files Rxav 1 490 11-06-2013 08:29 AM
Last Post: Willem53
  Problem upgrading NMT Applications on E-great M32B georbe 7 3,633 07-10-2013 10:05 AM
Last Post: mpempis139012
  Kaiboer K200 - Which ways to play audio files in queue ? Nonio 7 2,628 09-01-2012 11:31 PM
Last Post: Nonio
  CMI/Syvio no longer shipping NMTs. Anyone have latest firmware file for Syvio 200A? jalla 4 3,665 05-20-2012 05:08 AM
Last Post: chris57
  [Egreat M34A] Execute .cgi file geecko 0 2,665 02-22-2012 01:08 AM
Last Post: geecko
  I can't play ISO BD on HDX1000 marabunta 3 1,997 12-04-2011 07:15 PM
Last Post: chris57
  MKV file freezes on hdx 1000 turnerd 9 4,854 09-27-2011 09:41 AM
Last Post: turnerd
  IstarHD H5 image file needed yannis18 0 1,028 09-25-2011 08:18 AM
Last Post: yannis18
  HDX 1000 Video Play back problems bukvod 1 3,084 05-29-2011 10:51 PM
Last Post: chris57

Forum Jump: