Firmware: A-410 [01 Apr. 2014] | A-400 [12 Mar. 2014] | C-300 [13 Feb. 2014] | A-300 [24 Feb. 2014] | C-200 [11 July 2013] | A-200/A-210 [11 July 2013] | Popbox V8 [3 Dec 2013]

Just got your NMT | WIKI has the answers | Search the forum | Forum Rules/Policy | Firmware & Official NMT News | Popcornhour manuals



User(s) browsing this thread: 1 Guest(s)
Post Reply 
[APP Request] ipla.pl
01-23-2011, 09:49 AM (This post was last modified: 03-26-2011 08:41 PM by chris57.)
Post: #1
[APP Request] ipla.pl
Welcome

What are the chances of access to the Polish site ipla.pl

Sorry for my english
Find all posts by this user
Add Thank You Quote this message in a reply
01-23-2011, 11:17 AM
Post: #2
RE: Popcorn C-200 and ipla.pl
And welcome to you! Your English is so much better than my Polish Wink

By looking at the page I'm not sure what you want to do:
- Does this page serve video files that you want to see on your TV via the NMT?

If that's what you are looking for, could you please post a link to one of these video files, so we can examine what format the video is served in etc.

If you have trouble to express yourself in English, this site is quite nice:
http://nicetranslator.com/

Audio, video, disco - I hear, I see, I learn.
Wiki. Wiki? Wiki!
Find all posts by this user
Add Thank You Quote this message in a reply
01-23-2011, 12:30 PM (This post was last modified: 01-23-2011 01:17 PM by falitorek.)
Post: #3
RE: Popcorn C-200 and ipla.pl
I want to watch the video as it is on Panasonic and Samsung TVs

http://www.panasonic.pl/html/pl_PL/Produ...er_3748412
http://www.samsung.com/pl/internet_tv/

I do not know what file format it supports.
I have installed application IPLA.
I watch movies on a computer application IPLA
Find all posts by this user
Add Thank You Quote this message in a reply
03-02-2011, 08:01 PM
Post: #4
RE: Popcorn C-200 and ipla.pl
I do not know the format too but...

1. There is a version for linux & macos using Adobe AIR technology (http://www.ipla.pl/Ipla_Lite,3387/index.html)
2. There is also one version for android smartphones (http://www.ipla.pl/Android,5659/index.html)

from what is written on this page ipla.pl is quite interested in spreading this service everywhere they can. If someone could contact them I guess there would be no problem with making this available for PCH-200

PCH200 + Samsung Eco 1TB
Find all posts by this user
Add Thank You Quote this message in a reply
03-04-2011, 05:33 PM
Post: #5
RE: Popcorn C-200 and ipla.pl
They need an idea of what format the stream is, Flash, mp4 or whatever?

Stream a file and find out, or download one and scan it with mediainfo:
http://mediainfo.sourceforge.net/en

A400: SD Card(Apps), HDMI C200: USB(Apps), BD ROM (SH-B083L(SB01)), HDMI
CAT6 Wired Network: TV Panasonic TX-P42G20, HP ProCurve 1400-8G, Netgear GS-608/605, Synology CS407
Find all posts by this user
Add Thank You Quote this message in a reply
03-08-2011, 09:05 PM
Post: #6
RE: Popcorn C-200 and ipla.pl
More checking and the problem is that they want you do download the app and the app is made so it can display adverts in many formats when you are watching. I'm afraid it can be not possible to build the app that by default extracts only the stream and kills the ads.

PCH200 + Samsung Eco 1TB
Find all posts by this user
Add Thank You Quote this message in a reply
03-13-2011, 04:18 PM
Post: #7
RE: Popcorn C-200 and ipla.pl
A bit of news...
Ipla is now available for PS3 console at http://tv.ipla.pl/ps3/. Unfortunately PCH can't open this site, because the web browser 'User Agent' is checked. Sad
Of course, this page can be opened on Firefox with 'User Agent Switcher' add-on and PS3 profile.

It's possible to change 'User Agent' on PCH?

Details of video file from ipla.
Quote:ID : 1
Complete name : C:\Users\Marcus\AppData\Local\Temp\6c9f02b9a425bcf096b301eae8b71bf3.m2ts
Format : BDAV
Format/Info : Blu-ray Video
File size : 232 MiB
Duration : 22mn 4s
Overall bit rate : 1 472 Kbps
Maximum Overall bit rate : 35.5 Mbps

Video
ID : 4113 (0x1011)
Menu ID : 1 (0x1)
Format : AVC
Format/Info : Advanced Video Codec
Format profile : High@L3.1
Format settings, CABAC : Yes
Format settings, ReFrames : 7 frames
Format settings, GOP : M=1, N=22
Codec ID : 27
Duration : 22mn 4s
Bit rate mode : Variable
Bit rate : 1 245 Kbps
Maximum bit rate : 40.0 Mbps
Width : 720 pixels
Height : 576 pixels
Display aspect ratio : 16:9
Frame rate : 25.000 fps
Standard : PAL
Color space : YUV
Chroma subsampling : 4:2:0
Bit depth : 8 bits
Scan type : Progressive
Bits/(Pixel*Frame) : 0.120
Stream size : 197 MiB (85%)
Writing library : x264 core 112 r1867M 22bfd31
Encoding settings : cabac=1 / ref=8 / deblock=1:-1:-1 / analyse=0x3:0x133 / me=umh / subme=9 / psy=1 / psy_rd=1.00:0.15 / mixed_ref=1 / me_range=16 / chroma_me=1 / trellis=2 / 8x8dct=1 / cqm=0 / deadzone=21,11 / fast_pskip=1 / chroma_qp_offset=-3 / threads=6 / sliced_threads=0 / nr=0 / decimate=1 / interlaced=0 / constrained_intra=0 / bframes=3 / b_pyramid=1 / b_adapt=2 / b_bias=0 / direct=3 / weightb=1 / open_gop=0 / weightp=0 / keyint=250 / keyint_min=25 / scenecut=40 / intra_refresh=0 / rc_lookahead=60 / rc=crf / mbtree=1 / crf=19.0 / qcomp=0.60 / qpmin=0 / qpmax=51 / qpstep=4 / vbv_maxrate=1200 / vbv_bufsize=4800 / crf_max=0.0 / nal_hrd=none / ip_ratio=1.40 / aq=1:1.0

Audio
ID : 4352 (0x1100)
Menu ID : 1 (0x1)
Format : AC-3
Format/Info : Audio Coding 3
Mode extension : CM (complete main)
Codec ID : 129
Duration : 22mn 4s
Bit rate mode : Constant
Bit rate : 160 Kbps
Channel(s) : 2 channels
Channel positions : Front: L R
Sampling rate : 44.1 KHz
Bit depth : 16 bits
Stream size : 25.3 MiB (11%)
Language : English

I tried to play this file on the PCH and it works great. Smile

PCH C200 (FW: 02-04-110422-21-POP-408-000)+int. Samsung HD204UI 3,5" 2TB HDD <-> FreeNAS v0.7.2 (ZFS) --> ONKYO TX-NR609 --> Samsung LE46B652
Find all posts by this user
Add Thank You Quote this message in a reply
[+] 1 user says Thank You to snow for this post
03-13-2011, 09:25 PM
Post: #8
RE: Popcorn C-200 and ipla.pl
(01-23-2011 09:49 AM)falitorek Wrote:  Welcome

What are the chances of access to the Polish site ipla.pl

Sorry for my english

+1

C200 (MB rev. 0946) --> HDMI --> Harman Kardon AVR 255 (firmware 0.98.3.1) --> HDMI --> Samsung LE32R71B
C200: internal 2,5” 640GB HDD, Lite-On iHOS104, All audio RAW pass through.
Find all posts by this user
Add Thank You Quote this message in a reply
04-12-2011, 04:31 PM
Post: #9
RE: [APP Request] ipla.pl
Any more info about ipla and PH C-200?? Hope someone will make app for that website Smile

+1
Find all posts by this user
Add Thank You Quote this message in a reply
06-28-2011, 08:19 PM
Post: #10
RE: [APP Request] ipla.pl
ipla.pl
+1
Find all posts by this user
Add Thank You Quote this message in a reply
07-24-2011, 02:47 PM
Post: #11
RE: [APP Request] ipla.pl
ipla.pl
+1
Find all posts by this user
Add Thank You Quote this message in a reply
08-01-2011, 07:40 PM
Post: #12
RE: [APP Request] ipla.pl
ipla.pl
+1
Find all posts by this user
Add Thank You Quote this message in a reply
08-11-2011, 10:18 PM
Post: #13
RE: [APP Request] ipla.pl
ipla.pl

+1
Find all posts by this user
Add Thank You Quote this message in a reply
09-02-2011, 01:24 PM
Post: #14
RE: [APP Request] ipla.pl
ipla.pl
+1
Find all posts by this user
Add Thank You Quote this message in a reply
09-02-2011, 09:26 PM
Post: #15
RE: [APP Request] ipla.pl
ipla.pl

+1
Find all posts by this user
Add Thank You Quote this message in a reply
Post Reply 


Possibly Related Threads...
Thread: Author Replies: Views: Last Post
  Twitter App not authorising - Request token invalid Gary 2 428 03-10-2014 06:57 PM
Last Post: UKMach
  [APP Request] GrooveShark for PCH-200 montag 17 10,667 12-23-2013 11:56 AM
Last Post: jonny555
  [REQUEST] Plex connecting to remote server p.pieper 0 690 12-06-2013 01:14 PM
Last Post: p.pieper
Wink [APP Request] Spotify client Zuma_NL 1 599 11-22-2013 04:35 PM
Last Post: chris57
  [REQUEST] add support for plex navi x plugin jonny555 2 2,608 11-15-2013 01:29 AM
Last Post: skilled
  [request] adding arabic keyboard to Youtube app drh104 0 666 09-07-2013 10:26 AM
Last Post: drh104
  [App Request] Wake server from home screen on A400 Stoke192 2 1,064 02-01-2013 12:17 PM
Last Post: accident
Video [Apps Request] Popcorn C-200 and "Love Film" tictag 16 11,810 10-03-2012 09:30 PM
Last Post: woytas
Star [REQUEST] TED subtitles clint0n 25 6,670 08-26-2012 07:38 PM
Last Post: lemaxw
  [Request] TVE a la Carta zuzuzu 16 9,665 08-11-2012 10:19 AM
Last Post: dferregu

Forum Jump: