Firmware: A-410 [01 Apr. 2014] | A-400 [12 Mar. 2014] | C-300 [13 Feb. 2014] | A-300 [24 Feb. 2014] | C-200 [11 July 2013] | A-200/A-210 [11 July 2013] | Popbox V8 [3 Dec 2013]

Just got your NMT | WIKI has the answers | Search the forum | Forum Rules/Policy | Firmware & Official NMT News | Popcornhour manuals



User(s) browsing this thread: 1 Guest(s)
Thread Closed 
[C-200] Firmware 02-04-110308-21-POP-408 (02-04-101104-21-POP-408 Apps) (11.03.2011)
03-28-2011, 06:17 PM
Post: #256
RE: [C-200] Firmware 02-04-110308-21-POP-408 (02-04-101104-21-POP-408 Apps) (11.03.2011)
(03-28-2011 05:02 PM)Shyva Wrote:  
(03-25-2011 03:37 PM)chris57 Wrote:  More reassuring for me is to see how close the guys at Syabas are getting with Matroska. With Haali also involved in the development its quite a powerful team now working on the NMT MKV side of things.

Huh? Do you mean that Haali is working with Syabas?? Does that mean that we might be able to enjoy 2in1 bluray rips using the MKV feature Ordered Chapters (see references)? That would be so great!

References:
- Ordered chapters as described by Haali himself:
http://forum.doom9.org/showthread.php?t=99489
- And here by TheFluff (an idiotic writing style he might have, but he does know what he talks about):
http://mod16.org/hurfdurf/?p=8

Haali is a software developer and forum member:
http://www.networkedmediatank.com/member...e&uid=6150
I asked Werner if it was the man himself and was he working with Syabas on the NMT months ago and got it confirmed.

So with the Syabas guys working with Matroska, and haali on the forum as a developer with Syabas I think its a pretty formidable team.

What it leads to or is even possible on the Sigma chip i'll never know. I havent signed any NDA.

A400: SD Card(Apps), HDMI C200: USB(Apps), BD ROM (SH-B083L(SB01)), HDMI
CAT6 Wired Network: TV Panasonic TX-P42G20, HP ProCurve 1400-8G, Netgear GS-608/605, Synology CS407
Find all posts by this user
03-29-2011, 12:02 AM
Post: #257
RE: [C-200] Firmware 02-04-110308-21-POP-408 (02-04-101104-21-POP-408 Apps) (11.03.2011)
I have issues with some of my HD movies I previously could play without issues now with the 11-03-2011 firmware installed.
The popcorn c-200 seems to have trouble with the image display. Because the sound workes perfectly during this issue.
sometimes is goes directly dark, and sometimes there is a quick glitch like an old TV that is turned off...

I have reverted to the earlier firmware and I had no trouble playing any movie.
I have reupgraded the firmware and have now the same issues again.
it really seems to be a issue in the firmware.

I tried to open a case but they recommended to post this here.
Find all posts by this user
03-29-2011, 04:00 AM (This post was last modified: 03-29-2011 04:00 AM by chris57.)
Post: #258
RE: [C-200] Firmware 02-04-110308-21-POP-408 (02-04-101104-21-POP-408 Apps) (11.03.2011)
You need to get more specific, 'some movies' doesnt tell us anything.

Get a thread started in the 200 series Video section, fire up mediainfo, list your settings, hardware, type of connections etc. etc.

A400: SD Card(Apps), HDMI C200: USB(Apps), BD ROM (SH-B083L(SB01)), HDMI
CAT6 Wired Network: TV Panasonic TX-P42G20, HP ProCurve 1400-8G, Netgear GS-608/605, Synology CS407
Find all posts by this user
03-30-2011, 01:25 PM
Post: #259
RE: [C-200] Firmware 02-04-110308-21-POP-408 (02-04-101104-21-POP-408 Apps) (11.03.2011)
With the new firmware, I cannot play my ISO files any-more. The C-200 cannot access my shared folders in XP. It just try to connect, but nothing happens. When I return to the older firmware, it works.

What is changed in the new firmware?
Find all posts by this user
03-30-2011, 03:14 PM
Post: #260
RE: [C-200] Firmware 02-04-110308-21-POP-408 (02-04-101104-21-POP-408 Apps) (11.03.2011)
Did you upgrade the NMT applications also?
if so stop and restart the SAMBA service and make sure that the WORKGROUP is active in your windows network and it's not called MSHOME or anything else...


PCH-A100/A210/C200/A400 500GB EXT3 HDD<-->HDMIv1.3<-->Onkyo TX-NR1010<-->HDMIv1.3<-->Panasonic TX-P46S10 + 6 Bowers & Wilkins speakers.
10 NTFS 2TB USB drives on 3 hubs attached to the A400, 2 Seagate blackarmour NAS 3TB, 2 Seagate Central NAS 4TB.


The inability to setup and configure the NMT should not be disguised as a defect of the box...
Find all posts by this user
04-01-2011, 09:55 AM (This post was last modified: 04-01-2011 11:24 AM by Mariandvd.)
Post: #261
RE: [C-200] Firmware 02-04-110308-21-POP-408 (02-04-101104-21-POP-408 Apps) (11.03.2011)
(03-29-2011 12:02 AM)leondegekste Wrote:  I have issues with some of my HD movies I previously could play without issues now with the 11-03-2011 firmware installed.
The popcorn c-200 seems to have trouble with the image display. Because the sound workes perfectly during this issue.
sometimes is goes directly dark, and sometimes there is a quick glitch like an old TV that is turned off...

I have reverted to the earlier firmware and I had no trouble playing any movie.
I have reupgraded the firmware and have now the same issues again.
it really seems to be a issue in the firmware.

I tried to open a case but they recommended to post this here.

I have the same issues it freeze at 3 movies in 10 minutes (1GB) WMV with Wma V9 Pro
Find all posts by this user
04-01-2011, 11:40 AM
Post: #262
RE: [C-200] Firmware 02-04-110308-21-POP-408 (02-04-101104-21-POP-408 Apps) (11.03.2011)
Another issue I just noticed, watching HD movies from PC over 100Mb LAN, while having some hard drive activiy like a search or a file copy will make playing to stop for some time and then slowly becoming a slideshow. I never noticed this before. Can someone confirm same issue?

Thanks.
Find all posts by this user
04-01-2011, 02:08 PM
Post: #263
RE: [C-200] Firmware 02-04-110308-21-POP-408 (02-04-101104-21-POP-408 Apps) (11.03.2011)
(04-01-2011 11:40 AM)Denisoftus Wrote:  Another issue I just noticed, watching HD movies from PC over 100Mb LAN, while having some hard drive activiy like a search or a file copy will make playing to stop for some time and then slowly becoming a slideshow. I never noticed this before. Can someone confirm same issue?

Thanks.

confirm.... if the source can not supply the bandwidth the movie needs you will see this.


PCH-A100/A210/C200/A400 500GB EXT3 HDD<-->HDMIv1.3<-->Onkyo TX-NR1010<-->HDMIv1.3<-->Panasonic TX-P46S10 + 6 Bowers & Wilkins speakers.
10 NTFS 2TB USB drives on 3 hubs attached to the A400, 2 Seagate blackarmour NAS 3TB, 2 Seagate Central NAS 4TB.


The inability to setup and configure the NMT should not be disguised as a defect of the box...
Find all posts by this user
04-01-2011, 05:30 PM
Post: #264
RE: [C-200] Firmware 02-04-110308-21-POP-408 (02-04-101104-21-POP-408 Apps) (11.03.2011)
(04-01-2011 02:08 PM)Willem53 Wrote:  
(04-01-2011 11:40 AM)Denisoftus Wrote:  Another issue I just noticed, watching HD movies from PC over 100Mb LAN, while having some hard drive activiy like a search or a file copy will make playing to stop for some time and then slowly becoming a slideshow. I never noticed this before. Can someone confirm same issue?

Thanks.

confirm.... if the source can not supply the bandwidth the movie needs you will see this.

I find it hard to believe 2Tb WD Black with avarage 100Mbps read speed cannot supply with 30Mpbs (MAX), while doing other operations. Even if it can't, still do not understand how come I didn't notice it before firmware upgrade.
Find all posts by this user
04-01-2011, 08:40 PM
Post: #265
RE: [C-200] Firmware 02-04-110308-21-POP-408 (02-04-101104-21-POP-408 Apps) (11.03.2011)
(04-01-2011 05:30 PM)Denisoftus Wrote:  
(04-01-2011 02:08 PM)Willem53 Wrote:  
(04-01-2011 11:40 AM)Denisoftus Wrote:  Another issue I just noticed, watching HD movies from PC over 100Mb LAN, while having some hard drive activiy like a search or a file copy will make playing to stop for some time and then slowly becoming a slideshow. I never noticed this before. Can someone confirm same issue?

Thanks.

confirm.... if the source can not supply the bandwidth the movie needs you will see this.

I find it hard to believe 2Tb WD Black with avarage 100Mbps read speed cannot supply with 30Mpbs (MAX), while doing other operations. Even if it can't, still do not understand how come I didn't notice it before firmware upgrade.

You mean when you do a search or drive copy on your computer that is streaming to movie to the pch it slows down? that is pretty normal. depending on the system could be cpu overhead. could just be your drive has gotten fuller and the seeking back and fourth is taking to much time. to keep up with the hd stream. Next time open task manager and check cpu usage
Find all posts by this user
04-01-2011, 08:50 PM
Post: #266
RE: [C-200] Firmware 02-04-110308-21-POP-408 (02-04-101104-21-POP-408 Apps) (11.03.2011)
I see the same: HD movie sometimes becoming slideshow when playing over network from NAS. I found workaround for this. If I start samba server on c-200, HD movie run without problem. I don't know how can it be, but it's really work. I run october FW (last one without NMJ).
Find all posts by this user
04-01-2011, 09:35 PM
Post: #267
RE: [C-200] Firmware 02-04-110308-21-POP-408 (02-04-101104-21-POP-408 Apps) (11.03.2011)
(04-01-2011 08:40 PM)halfelite Wrote:  You mean when you do a search or drive copy on your computer that is streaming to movie to the pch it slows down? that is pretty normal. depending on the system could be cpu overhead. could just be your drive has gotten fuller and the seeking back and fourth is taking to much time. to keep up with the hd stream. Next time open task manager and check cpu usage
I've got an i7 8 cores, 4.2Ghz, I doubt it can possibly be even closed to be used by PCH or a copy operation, but I checked it anyway.
On the 2nd tought could be that disk require a defrag somehow?
Again I'm pointing that it never happened before an upgrade, I haven't degraded the PC since.


(04-01-2011 08:50 PM)Fund-A-Mental Wrote:  I see the same: HD movie sometimes becoming slideshow when playing over network from NAS. I found workaround for this. If I start samba server on c-200, HD movie run without problem. I don't know how can it be, but it's really work. I run october FW (last one without NMJ).

Thanks mate, I'll try that
Find all posts by this user
04-02-2011, 06:24 AM (This post was last modified: 04-02-2011 06:37 AM by Willem53.)
Post: #268
RE: [C-200] Firmware 02-04-110308-21-POP-408 (02-04-101104-21-POP-408 Apps) (11.03.2011)
Samba establishes a trust relation with the windows workgroup as it identifies the C200 as a windows system.
@denisoftus your system can keep you HD so busy with whatever it's doing, that it wont allocate the right bandwidth to that one remote task from that foreign system(NMT).
You never noticed that you had to wait because your PC was busy with some task....now I find that hard to believe...


PCH-A100/A210/C200/A400 500GB EXT3 HDD<-->HDMIv1.3<-->Onkyo TX-NR1010<-->HDMIv1.3<-->Panasonic TX-P46S10 + 6 Bowers & Wilkins speakers.
10 NTFS 2TB USB drives on 3 hubs attached to the A400, 2 Seagate blackarmour NAS 3TB, 2 Seagate Central NAS 4TB.


The inability to setup and configure the NMT should not be disguised as a defect of the box...
Find all posts by this user
04-02-2011, 09:57 AM (This post was last modified: 04-02-2011 09:58 AM by nakedm00n.)
Post: #269
RE: [C-200] Firmware 02-04-110308-21-POP-408 (02-04-101104-21-POP-408 Apps) (11.03.2011)
I have a subtitle issue with some dvd isos, switching subtitle on, off and then on from remote (with subtitle button) freeze player (the system still responding via telnet). Same problem reading from C200 attached drives and via NFS drives with March and December firmware.

Mediainfo of DVD with this subtitle issue:

Code:
General
Complete name                    : /Volumes/CORRS_LIVE_IN_LONDON_SCN/VIDEO_TS/VIDEO_TS.BUP
Format                           : DVD Video
Format profile                   : Menu
File size                        : 16.0 KiB

Video
ID                               : 224 (0xE0)
Format                           : MPEG Video
Format version                   : Version 2
Bit rate mode                    : Variable
Width                            : 720 pixels
Height                           : 576 pixels
Display aspect ratio             : 16:9
Frame rate                       : 25.000 fps
Standard                         : PAL

Text
Format                           : RLE
Format/Info                      : Run-length encoding
Resolution                       : 2 bits

General
Complete name                    : /Volumes/CORRS_LIVE_IN_LONDON_SCN/VIDEO_TS/VIDEO_TS.IFO
Format                           : DVD Video
Format profile                   : Menu
File size                        : 16.0 KiB

Video
ID                               : 224 (0xE0)
Format                           : MPEG Video
Format version                   : Version 2
Bit rate mode                    : Variable
Width                            : 720 pixels
Height                           : 576 pixels
Display aspect ratio             : 16:9
Frame rate                       : 25.000 fps
Standard                         : PAL

Text
Format                           : RLE
Format/Info                      : Run-length encoding
Resolution                       : 2 bits

General
Complete name                    : /Volumes/CORRS_LIVE_IN_LONDON_SCN/VIDEO_TS/VIDEO_TS.VOB
Format                           : MPEG-PS
File size                        : 60.3 MiB
Duration                         : 36s 400ms
Overall bit rate                 : 13.9 Mbps

Video
ID                               : 224 (0xE0)
Format                           : MPEG Video
Format version                   : Version 2
Format profile                   : Main@Main
Format settings, BVOP            : Yes
Format settings, Matrix          : Default
Format_Settings_GOP              : M=3, N=12
Duration                         : 36s 400ms
Bit rate mode                    : Variable
Bit rate                         : 13.3 Mbps
Nominal bit rate                 : 7 000 Kbps
Width                            : 720 pixels
Height                           : 576 pixels
Display aspect ratio             : 2.35:1
Frame rate                       : 25.000 fps
Standard                         : PAL
Resolution                       : 8 bits
Colorimetry                      : 4:2:0
Scan type                        : Interlaced
Scan order                       : Top Field First
Bits/(Pixel*Frame)               : 1.287
Stream size                      : 57.9 MiB (96%)

Menu

General
Complete name                    : /Volumes/CORRS_LIVE_IN_LONDON_SCN/VIDEO_TS/VTS_01_0.BUP
Format                           : DVD Video
Format profile                   : Program
File size                        : 14.0 KiB

Video
ID                               : 224 (0xE0)
Format                           : MPEG Video
Format version                   : Version 2
Bit rate mode                    : Variable
Width                            : 720 pixels
Height                           : 576 pixels
Display aspect ratio             : 16:9
Frame rate                       : 25.000 fps
Standard                         : PAL

Audio
ID                               : 128 (0x80)
Format                           : AC-3
Format/Info                      : Audio Coding 3
Channel(s)                       : 2 channels
Sampling rate                    : 48.0 KHz
Language                         : English

Menu
List (Audio)                     : 0

General
Complete name                    : /Volumes/CORRS_LIVE_IN_LONDON_SCN/VIDEO_TS/VTS_01_0.IFO
Format                           : DVD Video
Format profile                   : Program
File size                        : 14.0 KiB

Video
ID                               : 224 (0xE0)
Format                           : MPEG Video
Format version                   : Version 2
Bit rate mode                    : Variable
Width                            : 720 pixels
Height                           : 576 pixels
Display aspect ratio             : 16:9
Frame rate                       : 25.000 fps
Standard                         : PAL

Audio
ID                               : 128 (0x80)
Format                           : AC-3
Format/Info                      : Audio Coding 3
Channel(s)                       : 2 channels
Sampling rate                    : 48.0 KHz
Language                         : English

Menu
List (Audio)                     : 0

General
Complete name                    : /Volumes/CORRS_LIVE_IN_LONDON_SCN/VIDEO_TS/VTS_01_1.VOB
Format                           : MPEG-PS
File size                        : 36.5 MiB

Video
ID                               : 224 (0xE0)
Format                           : MPEG Video
Format version                   : Version 2
Format profile                   : Main@Main
Format settings, BVOP            : Yes
Format settings, Matrix          : Default
Format_Settings_GOP              : M=3, N=12
Bit rate mode                    : Variable
Bit rate                         : 7 000 Kbps
Width                            : 720 pixels
Height                           : 576 pixels
Display aspect ratio             : 2.35:1
Frame rate                       : 25.000 fps
Standard                         : PAL
Resolution                       : 8 bits
Colorimetry                      : 4:2:0
Scan type                        : Interlaced
Scan order                       : Top Field First
Bits/(Pixel*Frame)               : 0.675

Audio
ID                               : 128 (0x80)
Format                           : AC-3
Format/Info                      : Audio Coding 3
Bit rate mode                    : Constant
Bit rate                         : 256 Kbps
Channel(s)                       : 2 channels
Channel positions                : Front: L R
Sampling rate                    : 48.0 KHz

Menu

General
Complete name                    : /Volumes/CORRS_LIVE_IN_LONDON_SCN/VIDEO_TS/VTS_02_0.BUP
Format                           : DVD Video
Format profile                   : Program
File size                        : 166 KiB

Video
ID                               : 224 (0xE0)
Format                           : MPEG Video
Format version                   : Version 2
Bit rate mode                    : Variable
Width                            : 720 pixels
Height                           : 576 pixels
Display aspect ratio             : 16:9
Frame rate                       : 25.000 fps
Standard                         : PAL

Audio #1
ID                               : 128 (0x80)
Format                           : AC-3
Format/Info                      : Audio Coding 3
Channel(s)                       : 5 channels
Sampling rate                    : 48.0 KHz
Language                         : English

Audio #2
ID                               : 129 (0x81)
Format                           : AC-3
Format/Info                      : Audio Coding 3
Channel(s)                       : 2 channels
Sampling rate                    : 48.0 KHz
Language                         : English

Audio #3
ID                               : 138 (0x8A)
Format                           : DTS
Format/Info                      : Digital Theater Systems
Channel(s)                       : 5 channels
Sampling rate                    : 48.0 KHz
Language                         : English

Text #1
ID                               : 32 (0x20)
Format                           : RLE
Format/Info                      : Run-length encoding
Resolution                       : 2 bits
Language                         : English

Text #2
ID                               : 33 (0x21)
Format                           : RLE
Format/Info                      : Run-length encoding
Resolution                       : 2 bits

Menu #1
List (Audio)                     : 0 / 1 / 2
List (Subtitles 4/3)             : 0 / 0
List (Subtitles Wide)            : 0 / 1
List (Subtitles Letterbox)       : 0 / 1
List (Subtitles Pan&Scan)        : 0 / 0

Menu #2
List (Audio)                     : 0 / 1 / 2
List (Subtitles 4/3)             : 0 / 0
List (Subtitles Wide)            : 0 / 1
List (Subtitles Letterbox)       : 0 / 1
List (Subtitles Pan&Scan)        : 0 / 0

Menu #3

General
Complete name                    : /Volumes/CORRS_LIVE_IN_LONDON_SCN/VIDEO_TS/VTS_02_0.IFO
Format                           : DVD Video
Format profile                   : Program
File size                        : 166 KiB

Video
ID                               : 224 (0xE0)
Format                           : MPEG Video
Format version                   : Version 2
Bit rate mode                    : Variable
Width                            : 720 pixels
Height                           : 576 pixels
Display aspect ratio             : 16:9
Frame rate                       : 25.000 fps
Standard                         : PAL

Audio #1
ID                               : 128 (0x80)
Format                           : AC-3
Format/Info                      : Audio Coding 3
Channel(s)                       : 5 channels
Sampling rate                    : 48.0 KHz
Language                         : English

Audio #2
ID                               : 129 (0x81)
Format                           : AC-3
Format/Info                      : Audio Coding 3
Channel(s)                       : 2 channels
Sampling rate                    : 48.0 KHz
Language                         : English

Audio #3
ID                               : 138 (0x8A)
Format                           : DTS
Format/Info                      : Digital Theater Systems
Channel(s)                       : 5 channels
Sampling rate                    : 48.0 KHz
Language                         : English

Text #1
ID                               : 32 (0x20)
Format                           : RLE
Format/Info                      : Run-length encoding
Resolution                       : 2 bits
Language                         : English

Text #2
ID                               : 33 (0x21)
Format                           : RLE
Format/Info                      : Run-length encoding
Resolution                       : 2 bits

Menu #1
List (Audio)                     : 0 / 1 / 2
List (Subtitles 4/3)             : 0 / 0
List (Subtitles Wide)            : 0 / 1
List (Subtitles Letterbox)       : 0 / 1
List (Subtitles Pan&Scan)        : 0 / 0

Menu #2
List (Audio)                     : 0 / 1 / 2
List (Subtitles 4/3)             : 0 / 0
List (Subtitles Wide)            : 0 / 1
List (Subtitles Letterbox)       : 0 / 1
List (Subtitles Pan&Scan)        : 0 / 0

Menu #3

General
Complete name                    : /Volumes/CORRS_LIVE_IN_LONDON_SCN/VIDEO_TS/VTS_02_0.VOB
Format                           : MPEG-PS
File size                        : 167 MiB

Video
ID                               : 224 (0xE0)
Format                           : MPEG Video
Format version                   : Version 2
Format profile                   : Main@Main
Format settings, BVOP            : Yes
Format settings, Matrix          : Default
Format_Settings_GOP              : M=2, N=12
Bit rate mode                    : Variable
Bit rate                         : 8 000 Kbps
Width                            : 720 pixels
Height                           : 576 pixels
Display aspect ratio             : 16:9
Frame rate                       : 25.000 fps
Standard                         : PAL
Resolution                       : 8 bits
Colorimetry                      : 4:2:0
Scan type                        : Progressive
Bits/(Pixel*Frame)               : 0.772

Audio
ID                               : 160 (0xA0)
Format                           : PCM
Format settings, Endianness      : Big
Format settings, Sign            : Signed
Muxing mode                      : DVD-Video
Bit rate mode                    : Constant
Bit rate                         : 1 536 Kbps
Channel(s)                       : 2 channels
Channel positions                : Front: L R
Sampling rate                    : 48.0 KHz
Resolution                       : 16 bits

Text #1
ID                               : 32 (0x20)
Format                           : RLE
Format/Info                      : Run-length encoding

Text #2
ID                               : 33 (0x21)
Format                           : RLE
Format/Info                      : Run-length encoding

Menu

General
Complete name                    : /Volumes/CORRS_LIVE_IN_LONDON_SCN/VIDEO_TS/VTS_02_1.VOB
Format                           : MPEG-PS
File size                        : 1 024 MiB
Duration                         : 24mn 56s
Overall bit rate                 : 5 742 Kbps

Video
ID                               : 224 (0xE0)
Format                           : MPEG Video
Format version                   : Version 2
Format profile                   : Main@Main
Format settings, BVOP            : Yes
Format settings, Matrix          : Default
Format_Settings_GOP              : M=3, N=12
Duration                         : 24mn 56s
Bit rate mode                    : Variable
Bit rate                         : 3 927 Kbps
Nominal bit rate                 : 8 100 Kbps
Width                            : 720 pixels
Height                           : 576 pixels
Display aspect ratio             : 2.35:1
Frame rate                       : 25.000 fps
Standard                         : PAL
Resolution                       : 8 bits
Colorimetry                      : 4:2:0
Scan type                        : Interlaced
Scan order                       : Top Field First
Bits/(Pixel*Frame)               : 0.379
Stream size                      : 700 MiB (68%)

Audio #1
ID                               : 128 (0x80)
Format                           : AC-3
Format/Info                      : Audio Coding 3
Duration                         : 24mn 55s
Bit rate mode                    : Constant
Bit rate                         : 448 Kbps
Channel(s)                       : 5 channels
Channel positions                : Front: L C R, Side: L R
Sampling rate                    : 48.0 KHz
Stream size                      : 79.9 MiB (8%)

Audio #2
ID                               : 129 (0x81)
Format                           : AC-3
Format/Info                      : Audio Coding 3
Duration                         : 24mn 55s
Bit rate mode                    : Constant
Bit rate                         : 384 Kbps
Channel(s)                       : 2 channels
Channel positions                : Front: L R
Sampling rate                    : 48.0 KHz
Stream size                      : 68.5 MiB (7%)

Audio #3
ID                               : 138 (0x8A)
Format                           : DTS
Format/Info                      : Digital Theater Systems
Duration                         : 24mn 55s
Bit rate mode                    : Constant
Bit rate                         : 754 Kbps
Channel(s)                       : 5 channels
Channel positions                : Front: L C R, Side: L R
Sampling rate                    : 48.0 KHz
Resolution                       : 16 bits
Stream size                      : 135 MiB (13%)

Menu

General
Complete name                    : /Volumes/CORRS_LIVE_IN_LONDON_SCN/VIDEO_TS/VTS_02_2.VOB
Format                           : MPEG-PS
File size                        : 1 024 MiB

Video
ID                               : 224 (0xE0)
Format                           : MPEG Video
Format version                   : Version 2
Format profile                   : Main@Main
Format settings, BVOP            : Yes
Format settings, Matrix          : Default
Format_Settings_GOP              : M=3, N=12
Bit rate mode                    : Variable
Bit rate                         : 8 100 Kbps
Width                            : 720 pixels
Height                           : 576 pixels
Display aspect ratio             : 2.35:1
Frame rate                       : 25.000 fps
Standard                         : PAL
Resolution                       : 8 bits
Colorimetry                      : 4:2:0
Scan type                        : Interlaced
Scan order                       : Top Field First
Bits/(Pixel*Frame)               : 0.781

Audio #1
ID                               : 128 (0x80)
Format                           : AC-3
Format/Info                      : Audio Coding 3
Bit rate mode                    : Constant
Bit rate                         : 448 Kbps
Channel(s)                       : 5 channels
Channel positions                : Front: L C R, Side: L R
Sampling rate                    : 48.0 KHz

Audio #2
ID                               : 129 (0x81)
Format                           : AC-3
Format/Info                      : Audio Coding 3
Bit rate mode                    : Constant
Bit rate                         : 384 Kbps
Channel(s)                       : 2 channels
Channel positions                : Front: L R
Sampling rate                    : 48.0 KHz

Audio #3
ID                               : 138 (0x8A)
Format                           : DTS
Format/Info                      : Digital Theater Systems
Bit rate mode                    : Constant
Bit rate                         : 754 Kbps
Channel(s)                       : 5 channels
Channel positions                : Front: L C R, Side: L R
Sampling rate                    : 48.0 KHz
Resolution                       : 16 bits

Menu

General
Complete name                    : /Volumes/CORRS_LIVE_IN_LONDON_SCN/VIDEO_TS/VTS_02_3.VOB
Format                           : MPEG-PS
File size                        : 1 024 MiB
Duration                         : 10mn 41s
Overall bit rate                 : 13.4 Mbps

Video
ID                               : 224 (0xE0)
Format                           : MPEG Video
Format version                   : Version 2
Format profile                   : Main@Main
Format settings, BVOP            : Yes
Format settings, Matrix          : Default
Format_Settings_GOP              : M=3, N=12
Duration                         : 10mn 41s
Bit rate mode                    : Variable
Bit rate                         : 11.3 Mbps
Nominal bit rate                 : 5 800 Kbps
Width                            : 720 pixels
Height                           : 576 pixels
Display aspect ratio             : 2.35:1
Frame rate                       : 25.000 fps
Standard                         : PAL
Resolution                       : 8 bits
Colorimetry                      : 4:2:0
Scan type                        : Interlaced
Scan order                       : Top Field First
Bits/(Pixel*Frame)               : 1.087
Stream size                      : 862 MiB (84%)

Audio #1
ID                               : 128 (0x80)
Format                           : AC-3
Format/Info                      : Audio Coding 3
Duration                         : 10mn 41s
Bit rate mode                    : Constant
Bit rate                         : 448 Kbps
Channel(s)                       : 5 channels
Channel positions                : Front: L C R, Side: L R
Sampling rate                    : 48.0 KHz
Stream size                      : 34.3 MiB (3%)

Audio #2
ID                               : 129 (0x81)
Format                           : AC-3
Format/Info                      : Audio Coding 3
Duration                         : 10mn 41s
Bit rate mode                    : Constant
Bit rate                         : 384 Kbps
Channel(s)                       : 2 channels
Channel positions                : Front: L R
Sampling rate                    : 48.0 KHz
Stream size                      : 29.4 MiB (3%)

Audio #3
ID                               : 138 (0x8A)
Format                           : DTS
Format/Info                      : Digital Theater Systems
Duration                         : 10mn 41s
Bit rate mode                    : Constant
Bit rate                         : 754 Kbps
Channel(s)                       : 5 channels
Channel positions                : Front: L C R, Side: L R
Sampling rate                    : 48.0 KHz
Resolution                       : 16 bits
Stream size                      : 57.7 MiB (6%)

Text #1
ID                               : 32 (0x20)
Format                           : RLE
Format/Info                      : Run-length encoding

Text #2
ID                               : 33 (0x21)
Format                           : RLE
Format/Info                      : Run-length encoding

Menu

General
Complete name                    : /Volumes/CORRS_LIVE_IN_LONDON_SCN/VIDEO_TS/VTS_02_4.VOB
Format                           : MPEG-PS
File size                        : 1 024 MiB
Duration                         : 23mn 7s
Overall bit rate                 : 6 189 Kbps

Video
ID                               : 224 (0xE0)
Format                           : MPEG Video
Format version                   : Version 2
Format profile                   : Main@Main
Format settings, BVOP            : Yes
Format settings, Matrix          : Default
Format_Settings_GOP              : M=3, N=12
Duration                         : 23mn 7s
Bit rate mode                    : Variable
Bit rate                         : 4 357 Kbps
Nominal bit rate                 : 8 100 Kbps
Width                            : 720 pixels
Height                           : 576 pixels
Display aspect ratio             : 2.35:1
Frame rate                       : 25.000 fps
Standard                         : PAL
Resolution                       : 8 bits
Colorimetry                      : 4:2:0
Scan type                        : Interlaced
Scan order                       : Top Field First
Bits/(Pixel*Frame)               : 0.420
Stream size                      : 721 MiB (70%)

Audio #1
ID                               : 128 (0x80)
Format                           : AC-3
Format/Info                      : Audio Coding 3
Duration                         : 23mn 7s
Bit rate mode                    : Constant
Bit rate                         : 448 Kbps
Channel(s)                       : 5 channels
Channel positions                : Front: L C R, Side: L R
Sampling rate                    : 48.0 KHz
Stream size                      : 74.1 MiB (7%)

Audio #2
ID                               : 129 (0x81)
Format                           : AC-3
Format/Info                      : Audio Coding 3
Duration                         : 23mn 7s
Bit rate mode                    : Constant
Bit rate                         : 384 Kbps
Channel(s)                       : 2 channels
Channel positions                : Front: L R
Sampling rate                    : 48.0 KHz
Stream size                      : 63.5 MiB (6%)

Audio #3
ID                               : 138 (0x8A)
Format                           : DTS
Format/Info                      : Digital Theater Systems
Duration                         : 23mn 7s
Bit rate mode                    : Constant
Bit rate                         : 754 Kbps
Channel(s)                       : 5 channels
Channel positions                : Front: L C R, Side: L R
Sampling rate                    : 48.0 KHz
Resolution                       : 16 bits
Stream size                      : 125 MiB (12%)

Text #1
ID                               : 32 (0x20)
Format                           : RLE
Format/Info                      : Run-length encoding
Video delay                      : 4s 400ms

Text #2
ID                               : 33 (0x21)
Format                           : RLE
Format/Info                      : Run-length encoding
Video delay                      : 4s 400ms

Menu

General
Complete name                    : /Volumes/CORRS_LIVE_IN_LONDON_SCN/VIDEO_TS/VTS_02_5.VOB
Format                           : MPEG-PS
File size                        : 1 024 MiB

Video
ID                               : 224 (0xE0)
Format                           : MPEG Video
Format version                   : Version 2
Format profile                   : Main@Main
Format settings, BVOP            : Yes
Format settings, Matrix          : Default
Format_Settings_GOP              : M=3, N=12
Bit rate mode                    : Variable
Bit rate                         : 5 800 Kbps
Width                            : 720 pixels
Height                           : 576 pixels
Display aspect ratio             : 2.35:1
Frame rate                       : 25.000 fps
Standard                         : PAL
Resolution                       : 8 bits
Colorimetry                      : 4:2:0
Scan type                        : Interlaced
Scan order                       : Top Field First
Bits/(Pixel*Frame)               : 0.559

Audio #1
ID                               : 128 (0x80)
Format                           : AC-3
Format/Info                      : Audio Coding 3
Bit rate mode                    : Constant
Bit rate                         : 448 Kbps
Channel(s)                       : 5 channels
Channel positions                : Front: L C R, Side: L R
Sampling rate                    : 48.0 KHz

Audio #2
ID                               : 129 (0x81)
Format                           : AC-3
Format/Info                      : Audio Coding 3
Bit rate mode                    : Constant
Bit rate                         : 384 Kbps
Channel(s)                       : 2 channels
Channel positions                : Front: L R
Sampling rate                    : 48.0 KHz

Audio #3
ID                               : 138 (0x8A)
Format                           : DTS
Format/Info                      : Digital Theater Systems
Bit rate mode                    : Constant
Bit rate                         : 754 Kbps
Channel(s)                       : 5 channels
Channel positions                : Front: L C R, Side: L R
Sampling rate                    : 48.0 KHz
Resolution                       : 16 bits

Text #1
ID                               : 32 (0x20)
Format                           : RLE
Format/Info                      : Run-length encoding

Text #2
ID                               : 33 (0x21)
Format                           : RLE
Format/Info                      : Run-length encoding

Menu

General
Complete name                    : /Volumes/CORRS_LIVE_IN_LONDON_SCN/VIDEO_TS/VTS_02_6.VOB
Format                           : MPEG-PS
File size                        : 1 024 MiB

Video
ID                               : 224 (0xE0)
Format                           : MPEG Video
Format version                   : Version 2
Format profile                   : Main@Main
Format settings, BVOP            : Yes
Format settings, Matrix          : Default
Format_Settings_GOP              : M=3, N=12
Bit rate mode                    : Variable
Bit rate                         : 8 100 Kbps
Width                            : 720 pixels
Height                           : 576 pixels
Display aspect ratio             : 2.35:1
Frame rate                       : 25.000 fps
Standard                         : PAL
Resolution                       : 8 bits
Colorimetry                      : 4:2:0
Scan type                        : Interlaced
Scan order                       : Top Field First
Bits/(Pixel*Frame)               : 0.781

Audio #1
ID                               : 128 (0x80)
Format                           : AC-3
Format/Info                      : Audio Coding 3
Bit rate mode                    : Constant
Bit rate                         : 448 Kbps
Channel(s)                       : 5 channels
Channel positions                : Front: L C R, Side: L R
Sampling rate                    : 48.0 KHz

Audio #2
ID                               : 129 (0x81)
Format                           : AC-3
Format/Info                      : Audio Coding 3
Bit rate mode                    : Constant
Bit rate                         : 384 Kbps
Channel(s)                       : 2 channels
Channel positions                : Front: L R
Sampling rate                    : 48.0 KHz

Audio #3
ID                               : 138 (0x8A)
Format                           : DTS
Format/Info                      : Digital Theater Systems
Bit rate mode                    : Constant
Bit rate                         : 754 Kbps
Channel(s)                       : 5 channels
Channel positions                : Front: L C R, Side: L R
Sampling rate                    : 48.0 KHz
Resolution                       : 16 bits

Text #1
ID                               : 32 (0x20)
Format                           : RLE
Format/Info                      : Run-length encoding
Video delay                      : 1s 960ms

Text #2
ID                               : 33 (0x21)
Format                           : RLE
Format/Info                      : Run-length encoding
Video delay                      : 1s 960ms

Menu

General
Complete name                    : /Volumes/CORRS_LIVE_IN_LONDON_SCN/VIDEO_TS/VTS_02_7.VOB
Format                           : MPEG-PS
File size                        : 536 MiB
Duration                         : 12mn 39s
Overall bit rate                 : 5 916 Kbps

Video
ID                               : 224 (0xE0)
Format                           : MPEG Video
Format version                   : Version 2
Format profile                   : Main@Main
Format settings, BVOP            : Yes
Format settings, Matrix          : Default
Format_Settings_GOP              : M=3, N=12
Duration                         : 12mn 39s
Bit rate mode                    : Variable
Bit rate                         : 4 094 Kbps
Nominal bit rate                 : 8 100 Kbps
Width                            : 720 pixels
Height                           : 576 pixels
Display aspect ratio             : 2.35:1
Frame rate                       : 25.000 fps
Standard                         : PAL
Resolution                       : 8 bits
Colorimetry                      : 4:2:0
Scan type                        : Interlaced
Scan order                       : Top Field First
Bits/(Pixel*Frame)               : 0.395
Stream size                      : 371 MiB (69%)

Audio #1
ID                               : 128 (0x80)
Format                           : AC-3
Format/Info                      : Audio Coding 3
Duration                         : 12mn 39s
Bit rate mode                    : Constant
Bit rate                         : 448 Kbps
Channel(s)                       : 5 channels
Channel positions                : Front: L C R, Side: L R
Sampling rate                    : 48.0 KHz
Stream size                      : 40.6 MiB (8%)

Audio #2
ID                               : 129 (0x81)
Format                           : AC-3
Format/Info                      : Audio Coding 3
Duration                         : 12mn 39s
Bit rate mode                    : Constant
Bit rate                         : 384 Kbps
Channel(s)                       : 2 channels
Channel positions                : Front: L R
Sampling rate                    : 48.0 KHz
Stream size                      : 34.8 MiB (6%)

Audio #3
ID                               : 138 (0x8A)
Format                           : DTS
Format/Info                      : Digital Theater Systems
Duration                         : 12mn 39s
Bit rate mode                    : Constant
Bit rate                         : 754 Kbps
Channel(s)                       : 5 channels
Channel positions                : Front: L C R, Side: L R
Sampling rate                    : 48.0 KHz
Resolution                       : 16 bits
Stream size                      : 68.3 MiB (13%)

Text #1
ID                               : 32 (0x20)
Format                           : RLE
Format/Info                      : Run-length encoding
Video delay                      : 2s 680ms

Text #2
ID                               : 33 (0x21)
Format                           : RLE
Format/Info                      : Run-length encoding
Video delay                      : 2s 680ms

Menu

General
Complete name                    : /Volumes/CORRS_LIVE_IN_LONDON_SCN/VIDEO_TS/VTS_03_0.BUP
Format                           : DVD Video
Format profile                   : Program
File size                        : 26.0 KiB

Video
ID                               : 224 (0xE0)
Format                           : MPEG Video
Format version                   : Version 2
Bit rate mode                    : Variable
Width                            : 720 pixels
Height                           : 576 pixels
Display aspect ratio             : 4:3
Frame rate                       : 25.000 fps
Standard                         : PAL

Audio
ID                               : 128 (0x80)
Format                           : AC-3
Format/Info                      : Audio Coding 3
Channel(s)                       : 2 channels
Sampling rate                    : 48.0 KHz
Language                         : English

Text #1
ID                               : 32 (0x20)
Format                           : RLE
Format/Info                      : Run-length encoding
Resolution                       : 2 bits
Language                         : English

Text #2
ID                               : 32 (0x20)
Format                           : RLE
Format/Info                      : Run-length encoding
Resolution                       : 2 bits
Language                         : French

Text #3
ID                               : 32 (0x20)
Format                           : RLE
Format/Info                      : Run-length encoding
Resolution                       : 2 bits
Language                         : German

Text #4
ID                               : 32 (0x20)
Format                           : RLE
Format/Info                      : Run-length encoding
Resolution                       : 2 bits
Language                         : Spanish

Text #5
ID                               : 32 (0x20)
Format                           : RLE
Format/Info                      : Run-length encoding
Resolution                       : 2 bits
Language                         : Italian

Menu
List (Audio)                     : 0
List (Subtitles 4/3)             : 0 / 1 / 2 / 3 / 4
List (Subtitles Wide)            : 0 / 0 / 0 / 0 / 0
List (Subtitles Letterbox)       : 0 / 0 / 0 / 0 / 0
List (Subtitles Pan&Scan)        : 0 / 0 / 0 / 0 / 0

General
Complete name                    : /Volumes/CORRS_LIVE_IN_LONDON_SCN/VIDEO_TS/VTS_03_0.IFO
Format                           : DVD Video
Format profile                   : Program
File size                        : 26.0 KiB

Video
ID                               : 224 (0xE0)
Format                           : MPEG Video
Format version                   : Version 2
Bit rate mode                    : Variable
Width                            : 720 pixels
Height                           : 576 pixels
Display aspect ratio             : 4:3
Frame rate                       : 25.000 fps
Standard                         : PAL

Audio
ID                               : 128 (0x80)
Format                           : AC-3
Format/Info                      : Audio Coding 3
Channel(s)                       : 2 channels
Sampling rate                    : 48.0 KHz
Language                         : English

Text #1
ID                               : 32 (0x20)
Format                           : RLE
Format/Info                      : Run-length encoding
Resolution                       : 2 bits
Language                         : English

Text #2
ID                               : 32 (0x20)
Format                           : RLE
Format/Info                      : Run-length encoding
Resolution                       : 2 bits
Language                         : French

Text #3
ID                               : 32 (0x20)
Format                           : RLE
Format/Info                      : Run-length encoding
Resolution                       : 2 bits
Language                         : German

Text #4
ID                               : 32 (0x20)
Format                           : RLE
Format/Info                      : Run-length encoding
Resolution                       : 2 bits
Language                         : Spanish

Text #5
ID                               : 32 (0x20)
Format                           : RLE
Format/Info                      : Run-length encoding
Resolution                       : 2 bits
Language                         : Italian

Menu
List (Audio)                     : 0
List (Subtitles 4/3)             : 0 / 1 / 2 / 3 / 4
List (Subtitles Wide)            : 0 / 0 / 0 / 0 / 0
List (Subtitles Letterbox)       : 0 / 0 / 0 / 0 / 0
List (Subtitles Pan&Scan)        : 0 / 0 / 0 / 0 / 0

General
Complete name                    : /Volumes/CORRS_LIVE_IN_LONDON_SCN/VIDEO_TS/VTS_03_1.VOB
Format                           : MPEG-PS
File size                        : 643 MiB
Duration                         : 19mn 40s
Overall bit rate                 : 4 572 Kbps

Video
ID                               : 224 (0xE0)
Format                           : MPEG Video
Format version                   : Version 2
Format profile                   : Main@Main
Format settings, BVOP            : Yes
Format settings, Matrix          : Default
Format_Settings_GOP              : M=3, N=12
Duration                         : 19mn 40s
Bit rate mode                    : Variable
Bit rate                         : 4 007 Kbps
Nominal bit rate                 : 8 100 Kbps
Width                            : 720 pixels
Height                           : 576 pixels
Display aspect ratio             : 4:3
Frame rate                       : 25.000 fps
Standard                         : PAL
Resolution                       : 8 bits
Colorimetry                      : 4:2:0
Scan type                        : Interlaced
Scan order                       : Top Field First
Bits/(Pixel*Frame)               : 0.386
Stream size                      : 564 MiB (88%)

Audio
ID                               : 128 (0x80)
Format                           : AC-3
Format/Info                      : Audio Coding 3
Duration                         : 19mn 39s
Bit rate mode                    : Constant
Bit rate                         : 384 Kbps
Channel(s)                       : 2 channels
Channel positions                : Front: L R
Sampling rate                    : 48.0 KHz
Stream size                      : 54.0 MiB (8%)

Text #1
ID                               : 32 (0x20)
Format                           : RLE
Format/Info                      : Run-length encoding
Video delay                      : 240ms

Text #2
ID                               : 33 (0x21)
Format                           : RLE
Format/Info                      : Run-length encoding
Video delay                      : 400ms

Text #3
ID                               : 34 (0x22)
Format                           : RLE
Format/Info                      : Run-length encoding
Video delay                      : 400ms

Text #4
ID                               : 35 (0x23)
Format                           : RLE
Format/Info                      : Run-length encoding
Video delay                      : 400ms

Text #5
ID                               : 36 (0x24)
Format                           : RLE
Format/Info                      : Run-length encoding
Video delay                      : 400ms

Menu

General
Complete name                    : /Volumes/CORRS_LIVE_IN_LONDON_SCN/VIDEO_TS/VTS_04_0.BUP
Format                           : DVD Video
Format profile                   : Program
File size                        : 14.0 KiB

Video
ID                               : 224 (0xE0)
Format                           : MPEG Video
Format version                   : Version 2
Bit rate mode                    : Variable
Width                            : 720 pixels
Height                           : 576 pixels
Display aspect ratio             : 16:9
Frame rate                       : 25.000 fps
Standard                         : PAL

Audio #1
ID                               : 128 (0x80)
Format                           : AC-3
Format/Info                      : Audio Coding 3
Channel(s)                       : 5 channels
Sampling rate                    : 48.0 KHz
Language                         : English

Audio #2
ID                               : 129 (0x81)
Format                           : AC-3
Format/Info                      : Audio Coding 3
Channel(s)                       : 2 channels
Sampling rate                    : 48.0 KHz
Language                         : English

Audio #3
ID                               : 138 (0x8A)
Format                           : DTS
Format/Info                      : Digital Theater Systems
Channel(s)                       : 5 channels
Sampling rate                    : 48.0 KHz
Language                         : English

Text #1
ID                               : 32 (0x20)
Format                           : RLE
Format/Info                      : Run-length encoding
Resolution                       : 2 bits
Language                         : English

Text #2
ID                               : 33 (0x21)
Format                           : RLE
Format/Info                      : Run-length encoding
Resolution                       : 2 bits

Menu
List (Audio)                     : 0 / 1 / 2
List (Subtitles 4/3)             : 0 / 0
List (Subtitles Wide)            : 0 / 1
List (Subtitles Letterbox)       : 0 / 0
List (Subtitles Pan&Scan)        : 0 / 0

General
Complete name                    : /Volumes/CORRS_LIVE_IN_LONDON_SCN/VIDEO_TS/VTS_04_0.IFO
Format                           : DVD Video
Format profile                   : Program
File size                        : 14.0 KiB

Video
ID                               : 224 (0xE0)
Format                           : MPEG Video
Format version                   : Version 2
Bit rate mode                    : Variable
Width                            : 720 pixels
Height                           : 576 pixels
Display aspect ratio             : 16:9
Frame rate                       : 25.000 fps
Standard                         : PAL

Audio #1
ID                               : 128 (0x80)
Format                           : AC-3
Format/Info                      : Audio Coding 3
Channel(s)                       : 5 channels
Sampling rate                    : 48.0 KHz
Language                         : English

Audio #2
ID                               : 129 (0x81)
Format                           : AC-3
Format/Info                      : Audio Coding 3
Channel(s)                       : 2 channels
Sampling rate                    : 48.0 KHz
Language                         : English

Audio #3
ID                               : 138 (0x8A)
Format                           : DTS
Format/Info                      : Digital Theater Systems
Channel(s)                       : 5 channels
Sampling rate                    : 48.0 KHz
Language                         : English

Text #1
ID                               : 32 (0x20)
Format                           : RLE
Format/Info                      : Run-length encoding
Resolution                       : 2 bits
Language                         : English

Text #2
ID                               : 33 (0x21)
Format                           : RLE
Format/Info                      : Run-length encoding
Resolution                       : 2 bits

Menu
List (Audio)                     : 0 / 1 / 2
List (Subtitles 4/3)             : 0 / 0
List (Subtitles Wide)            : 0 / 1
List (Subtitles Letterbox)       : 0 / 0
List (Subtitles Pan&Scan)        : 0 / 0

General
Complete name                    : /Volumes/CORRS_LIVE_IN_LONDON_SCN/VIDEO_TS/VTS_04_1.VOB
Format                           : MPEG-PS
File size                        : 168 MiB
Duration                         : 4mn 4s
Overall bit rate                 : 5 772 Kbps

Video
ID                               : 224 (0xE0)
Format                           : MPEG Video
Format version                   : Version 2
Format profile                   : Main@Main
Format settings, BVOP            : Yes
Format settings, Matrix          : Default
Format_Settings_GOP              : M=3, N=12
Duration                         : 4mn 4s
Bit rate mode                    : Variable
Bit rate                         : 3 957 Kbps
Nominal bit rate                 : 8 100 Kbps
Width                            : 720 pixels
Height                           : 576 pixels
Display aspect ratio             : 2.35:1
Frame rate                       : 25.000 fps
Standard                         : PAL
Resolution                       : 8 bits
Colorimetry                      : 4:2:0
Scan type                        : Interlaced
Scan order                       : Top Field First
Bits/(Pixel*Frame)               : 0.382
Stream size                      : 115 MiB (69%)

Audio #1
ID                               : 128 (0x80)
Format                           : AC-3
Format/Info                      : Audio Coding 3
Duration                         : 4mn 3s
Bit rate mode                    : Constant
Bit rate                         : 448 Kbps
Channel(s)                       : 5 channels
Channel positions                : Front: L C R, Side: L R
Sampling rate                    : 48.0 KHz
Stream size                      : 13.0 MiB (8%)

Audio #2
ID                               : 129 (0x81)
Format                           : AC-3
Format/Info                      : Audio Coding 3
Duration                         : 4mn 3s
Bit rate mode                    : Constant
Bit rate                         : 384 Kbps
Channel(s)                       : 2 channels
Channel positions                : Front: L R
Sampling rate                    : 48.0 KHz
Stream size                      : 11.2 MiB (7%)

Audio #3
ID                               : 138 (0x8A)
Format                           : DTS
Format/Info                      : Digital Theater Systems
Duration                         : 4mn 3s
Bit rate mode                    : Constant
Bit rate                         : 754 Kbps
Channel(s)                       : 5 channels
Channel positions                : Front: L C R, Side: L R
Sampling rate                    : 48.0 KHz
Resolution                       : 16 bits
Stream size                      : 21.9 MiB (13%)

Menu
Find all posts by this user
04-02-2011, 10:51 AM (This post was last modified: 04-02-2011 02:15 PM by Willem53.)
Post: #270
RE: [C-200] Firmware 02-04-110308-21-POP-408 (02-04-101104-21-POP-408 Apps) (11.03.2011)
and if you press menu to switch subtittles?


PCH-A100/A210/C200/A400 500GB EXT3 HDD<-->HDMIv1.3<-->Onkyo TX-NR1010<-->HDMIv1.3<-->Panasonic TX-P46S10 + 6 Bowers & Wilkins speakers.
10 NTFS 2TB USB drives on 3 hubs attached to the A400, 2 Seagate blackarmour NAS 3TB, 2 Seagate Central NAS 4TB.


The inability to setup and configure the NMT should not be disguised as a defect of the box...
Find all posts by this user
Thread Closed 


Possibly Related Threads...
Thread: Author Replies: Views: Last Post
  [A-400] Firmware 05-06-140307-25-POP-422 + Apps (Forum Release) (7.03.2014) werner 19 5,671 03-12-2014 07:30 AM
Last Post: Willem53
  [A-400] Firmware 05-05-140119-25-POP-422 (05-01-131210-25-POP-422) (22.01.2014) werner 337 68,069 03-09-2014 04:23 PM
Last Post: ident4site
  [C-300] Firmware 05-03-130924-23-POP-420 (05-02-130708-23-POP-420) (25.09.2013) werner 105 66,245 02-06-2014 10:02 PM
Last Post: vedran1980
  [A-300] Firmware 05-03-131223-23-POP-421 (05-02-130708-23-POP-421) (30.12.2013) werner 146 30,074 02-06-2014 08:41 PM
Last Post: yo121212
  [A-400] Firmware 05-05-140112-25-POP-422 + NEW Apps (Forum Release) (13.01.2014) werner 51 18,502 01-20-2014 08:35 PM
Last Post: iamloco724@aol.com
  [A-400] Firmware 05-05-140105-25-POP-422 + NEW Apps (Forum Release) (08.01.2014) werner 52 13,391 01-12-2014 08:21 PM
Last Post: chris57
  [A-400] Firmware 05-05-131224-25-POP-422 + Apps (Forum Release) (27.12.2013) werner 56 20,096 01-08-2014 10:06 AM
Last Post: lostmage
  [A-400] Firmware 05-04-131105-25-POP-422 (05-01-130708-25-POP-422) (7.11.2013) werner 170 102,462 01-05-2014 08:48 PM
Last Post: iamloco724@aol.com
  [A-300] Firmware 05-03-130923-23-POP-421 (05-02-130708-23-POP-421) (23.09.2013) werner 161 72,947 12-29-2013 01:52 PM
Last Post: Figas
  [A-400] Firmware 05-05-131209-25-POP-422 + Apps (Forum Release) (9.12.2013) werner 76 28,228 12-27-2013 08:21 AM
Last Post: sniperviperman

Forum Jump: