Firmware: A-410 [01 Apr. 2014] | A-400 [12 Mar. 2014] | C-300 [13 Feb. 2014] | A-300 [24 Feb. 2014] | C-200 [11 July 2013] | A-200/A-210 [11 July 2013] | Popbox V8 [3 Dec 2013]

Just got your NMT | WIKI has the answers | Search the forum | Forum Rules/Policy | Firmware & Official NMT News | Popcornhour manuals



User(s) browsing this thread: 1 Guest(s)
Post Reply 
AVI with no Sound - A110
05-02-2011, 11:09 AM
Post: #1
AVI with no Sound - A110
Having some issues and I need some help. Using A-110.

Basically the file below plays but with no Audio.

I tried converting it to MKV or MP4 via Handbrake but the audio is almost distorted(I checked, it is not any of my setup)


General
Complete name : C:\Users\Owner\Baby Einstein\BABY_MOZART.avi
Format : AVI
Format/Info : Audio Video Interleave
File size : 521 MiB
Duration : 26mn 55s
Overall bit rate : 2 706 Kbps
Writing application : Lavf51.12.1

Video
ID : 0
Format : xvid
Codec ID : xvid
Duration : 26mn 55s
Bit rate : 2 437 Kbps
Width : 640 pixels
Height : 480 pixels
Display aspect ratio : 4:3
Frame rate : 29.970 fps
Bits/(Pixel*Frame) : 0.265
Stream size : 469 MiB (90%)

Audio
ID : 1
Format : MPEG Audio
Format version : Version 1
Format profile : Layer 3
Mode : Joint stereo
Mode extension : MS Stereo
Codec ID : 55
Codec ID/Hint : MP3
Duration : 26mn 55s
Bit rate mode : Constant
Bit rate : 256 Kbps
Channel(s) : 2 channels
Sampling rate : 48.0 KHz
Compression mode : Lossy
Stream size : 49.3 MiB (9%)
Alignment : Aligned on interleaves
Interleave, duration : 24 ms (0.72 video frame)
Interleave, preload duration : 24 ms

Way to go Buzz Killington!!
Find all posts by this user
Add Thank You Quote this message in a reply
05-02-2011, 11:15 AM (This post was last modified: 05-02-2011 11:15 AM by Willem53.)
Post: #2
RE: AVI with no Sound - A110
just for a try could you toggle the volume on the NMT remote to +1 and back to 0 to wake up the audio engine for MP3 during playback


PCH-A100/A210/C200/A400 500GB EXT3 HDD<-->HDMIv1.3<-->Onkyo TX-NR1010<-->HDMIv1.3<-->Panasonic TX-P46S10 + 6 Bowers & Wilkins speakers.
10 NTFS 2TB USB drives on 3 hubs attached to the A400, 2 Seagate blackarmour NAS 3TB, 2 Seagate Central NAS 4TB.


The inability to setup and configure the NMT should not be disguised as a defect of the box...
Find all posts by this user
Add Thank You Quote this message in a reply
[+] 2 users say Thank You to Willem53 for this post
05-02-2011, 10:12 PM
Post: #3
RE: AVI with no Sound - A110
Well, I didn't realize I had the popcorn hour volume up so high, usually I just use either my stereo or my tv. I was able to turn it down so it doesn't sound like it is distorted anymore. It still will not play the AVI files, but I will just convert them to MKV and it sounds fine now. Thanks for you help Willem53

Way to go Buzz Killington!!
Find all posts by this user
Add Thank You Quote this message in a reply
05-02-2011, 10:15 PM
Post: #4
RE: AVI with no Sound - A110
a simple remux of the avi using avimux or vbudb would fix the audio 99% of the time.
Find all posts by this user
Add Thank You Quote this message in a reply
Post Reply 


Possibly Related Threads...
Thread: Author Replies: Views: Last Post
  A110 Playing ESIR release only sound works pazzy 8 758 12-22-2013 10:03 PM
Last Post: chris57
  A110 Can't Play Video Files Through Jukebox Overlay gamenlegend 1 899 08-22-2013 12:52 PM
Last Post: gamenlegend
  PCH A110 - cant play youtube video cimentocola 3 2,035 06-23-2013 01:44 PM
Last Post: VideoRipper
  stutter mkv, mov from canon ixus A110 edwin1979 1 2,520 05-19-2013 08:25 PM
Last Post: band1t1
  Is it a to high bitrate for A110 ? lucky55luc 6 1,529 02-05-2013 09:09 AM
Last Post: lucky55luc
  No Sound or Video IUFGN 4 1,546 01-11-2013 08:02 AM
Last Post: IUFGN
  A110 and AVCHD rozeb005 0 939 11-04-2012 01:25 PM
Last Post: rozeb005
  Edid problem a110? pnaspnas 3 1,396 06-27-2012 06:10 PM
Last Post: pnaspnas
  MKV or MP4 on A110 Gravityz 2 1,833 06-07-2012 07:13 PM
Last Post: Gravityz
  Problems playing xvid and mp4 formats on A110 harryb18 1 1,862 06-02-2012 08:52 PM
Last Post: cjmp

Forum Jump: