Firmware: A-410 [01 Apr. 2014] | A-400 [12 Mar. 2014] | C-300 [13 Feb. 2014] | A-300 [24 Feb. 2014] | C-200 [11 July 2013] | A-200/A-210 [11 July 2013] | Popbox V8 [3 Dec 2013]

Just got your NMT | WIKI has the answers | Search the forum | Forum Rules/Policy | Firmware & Official NMT News | Popcornhour manuals



User(s) browsing this thread: 1 Guest(s)
Thread Closed 
[C-200] Firmware 03-04-110530-21-POP-408 (03-04-110520-21-POP-408 Apps) (3.06.2011)
10-10-2011, 05:53 PM
Post: #646
RE: [C-200] Firmware 03-04-110530-21-POP-408 (03-04-110520-21-POP-408 Apps) (3.06.2011)
(10-10-2011 05:41 PM)halfelite Wrote:  No the problems comes down to avi is getting outdated something like the A100/hdx1000 avi was still in its prime now its moved along for things like mkv so more time usually goes towards mkv, Things like avi files have 100000x different options and only half of them are truly to spec for avi format. So while some players might have had fix's for out of spec avi files there comes a time were one has to say ok we cant spend 100 hours paying someone to put in all the fixes we had for avi files that are not to spec and just move on, Post a thread with a mediainfo output and we can continue the discussion there.

Thank you for you patience on this.

Here is one mediainfo output from Memphis Belle. The other movie, I currently have no access, but will post it later.

General
Unique ID : 1945763413423946642500915889208287848 (0x176BD8B00A74A4B9163372169A3E268)
Complete name : E:\MOVIES\Memphis Belle 1990 720p HDTV\Memphis Belle 1990 720p HDTV.mkv
Format : Matroska
Format version : Version 2
File size : 4.73 GiB
Duration : 1h 42mn
Overall bit rate : 6 592 Kbps
Encoded date : UTC 2011-05-21 23:14:10
Writing application : mkvmerge v4.7.0 ('Just Like You Imagined') built on Apr 20 2011 21:09:46
Writing library : libebml v1.2.0 + libmatroska v1.1.0

Video
ID : 1
Format : MPEG-4 Visual
Format profile : Simple@L3
Format settings, BVOP : Yes
Format settings, QPel : No
Format settings, GMC : No warppoints
Format settings, Matrix : Default (MPEG)
Codec ID : DX50
Codec ID/Hint : DivX 5
Duration : 1h 42mn
Bit rate : 5 322 Kbps
Width : 1 280 pixels
Height : 720 pixels
Display aspect ratio : 16:9
Frame rate : 25.000 fps
Original frame rate : 23.976 fps
Color space : YUV
Chroma subsampling : 4:2:0
Bit depth : 8 bits
Scan type : Progressive
Compression mode : Lossy
Bits/(Pixel*Frame) : 0.231
Stream size : 3.82 GiB (81%)
Writing library : XviD 1.1.0 Beta2 (UTC 2005-04-04)
Language : English

Audio #1
ID : 2
Format : DTS
Format/Info : Digital Theater Systems
Format profile : ES
Codec ID : A_DTS
Duration : 1h 42mn
Bit rate mode : Constant
Bit rate : 755 Kbps
Channel(s) : 7 channels / 6 channels
Channel positions : Front: L C R, Side: L R, Back: C, LFE / Front: L C R, Side: L R, LFE
Sampling rate : 48.0 KHz
Bit depth : 24 bits
Compression mode : Lossy
Stream size : 554 MiB (11%)
Language : English

Audio #2
ID : 3
Format : AC-3
Format/Info : Audio Coding 3
Mode extension : CM (complete main)
Codec ID : A_AC3
Duration : 1h 42mn
Bit rate mode : Constant
Bit rate : 384 Kbps
Channel(s) : 6 channels
Channel positions : Front: L C R, Side: L R, LFE
Sampling rate : 48.0 KHz
Bit depth : 16 bits
Compression mode : Lossy
Stream size : 282 MiB (6%)
Language : German

Text
ID : 4
Format : UTF-8
Codec ID : S_TEXT/UTF8
Codec ID/Info : UTF-8 Plain Text
Language : English
Find all posts by this user
Thread Closed 


Messages In This Thread
endless "checking crc ..." - cleoben - 06-14-2011, 05:36 PM
RE: endless "checking crc ..." - cleoben - 06-15-2011, 02:11 PM
BD PIP Audio vs Primary Audio - abqpete - 06-15-2011, 12:43 AM
ERR059 (after mac unblocking) - eFrisky - 08-28-2011, 04:21 PM
RE: [C-200] Firmware 03-04-110530-21-POP-408 (03-04-110520-21-POP-408 Apps) (3.06.2011) - bogsle2169 - 10-10-2011 05:53 PM
ALSA driver for C200 - papaiannis - 02-05-2012, 03:34 PM
RE: ALSA driver for C200 - Willem53 - 02-06-2012, 08:03 AM

Possibly Related Threads...
Thread: Author Replies: Views: Last Post
  [A-400] Firmware 05-06-140307-25-POP-422 + Apps (Forum Release) (7.03.2014) werner 19 5,791 03-12-2014 07:30 AM
Last Post: Willem53
  [A-400] Firmware 05-05-140119-25-POP-422 (05-01-131210-25-POP-422) (22.01.2014) werner 337 69,602 03-09-2014 04:23 PM
Last Post: ident4site
  [C-300] Firmware 05-03-130924-23-POP-420 (05-02-130708-23-POP-420) (25.09.2013) werner 105 66,489 02-06-2014 10:02 PM
Last Post: vedran1980
  [A-300] Firmware 05-03-131223-23-POP-421 (05-02-130708-23-POP-421) (30.12.2013) werner 146 30,497 02-06-2014 08:41 PM
Last Post: yo121212
  [A-400] Firmware 05-05-140112-25-POP-422 + NEW Apps (Forum Release) (13.01.2014) werner 51 18,809 01-20-2014 08:35 PM
Last Post: iamloco724@aol.com
  [A-400] Firmware 05-05-140105-25-POP-422 + NEW Apps (Forum Release) (08.01.2014) werner 52 13,536 01-12-2014 08:21 PM
Last Post: chris57
  [A-400] Firmware 05-05-131224-25-POP-422 + Apps (Forum Release) (27.12.2013) werner 56 20,289 01-08-2014 10:06 AM
Last Post: lostmage
  [A-400] Firmware 05-04-131105-25-POP-422 (05-01-130708-25-POP-422) (7.11.2013) werner 170 102,757 01-05-2014 08:48 PM
Last Post: iamloco724@aol.com
  [A-300] Firmware 05-03-130923-23-POP-421 (05-02-130708-23-POP-421) (23.09.2013) werner 161 73,258 12-29-2013 01:52 PM
Last Post: Figas
  [A-400] Firmware 05-05-131209-25-POP-422 + Apps (Forum Release) (9.12.2013) werner 76 28,400 12-27-2013 08:21 AM
Last Post: sniperviperman

Forum Jump: