Firmware: A-410 [01 Apr. 2014] | A-400 [12 Mar. 2014] | C-300 [13 Feb. 2014] | A-300 [24 Feb. 2014] | C-200 [11 July 2013] | A-200/A-210 [11 July 2013] | Popbox V8 [3 Dec 2013]

Just got your NMT | WIKI has the answers | Search the forum | Forum Rules/Policy | Firmware & Official NMT News | Popcornhour manuals



User(s) browsing this thread: 1 Guest(s)
Post Reply 
Uanble to play mp4
11-16-2011, 01:21 PM
Post: #1
Uanble to play mp4
Most of my mp4 videos don't play on my A300. After the message 'unspported video format' the screen remains black and the A300 does not respond to any remote command. I have to reboot to get the NMT working again.

All the files played fine on my A110. Here is the MediaInfo for one of those files:
Code:
General
Complete name                    : \\A300\share\Video\2 Fast 2 Furious.mp4
Format                           : MPEG-4
Format profile                   : Base Media / Version 1
Codec ID                         : mp41
File size                        : 687 MiB
Duration                         : 1h 40mn
Overall bit rate mode            : Variable
Overall bit rate                 : 953 Kbps
Encoded date                     : UTC 2007-05-06 15:56:18
Tagged date                      : UTC 2007-05-06 15:56:18

Video
ID                               : 3
Format                           : MPEG-4 Visual
Format profile                   : Advanced Simple@L5
Format settings, BVOP            : Yes
Format settings, QPel            : No
Format settings, GMC             : No warppoints
Format settings, Matrix          : Default (H.263)
Codec ID                         : 20
Duration                         : 1h 40mn
Bit rate mode                    : Variable
Bit rate                         : 867 Kbps
Maximum bit rate                 : 1 689 Kbps
Width                            : 352 pixels
Height                           : 176 pixels
Display aspect ratio             : 2.000
Frame rate mode                  : Constant
Frame rate                       : 25.000 fps
Color space                      : YUV
Chroma subsampling               : 4:2:0
Bit depth                        : 8 bits
Scan type                        : Progressive
Compression mode                 : Lossy
Bits/(Pixel*Frame)               : 0.560
Stream size                      : 625 MiB (91%)
Writing library                  : em4v 4.1.6.5
Language                         : English
Encoded date                     : UTC 2007-05-06 15:56:18
Tagged date                      : UTC 2007-05-06 15:56:18

Audio
ID                               : 4
Format                           : AAC
Format/Info                      : Advanced Audio Codec
Format profile                   : LC
Codec ID                         : 40
Duration                         : 1h 40mn
Bit rate mode                    : Variable
Bit rate                         : 80.0 Kbps
Maximum bit rate                 : 86.4 Kbps
Channel(s)                       : 2 channels
Channel positions                : Front: L R
Sampling rate                    : 44.1 KHz
Compression mode                 : Lossy
Stream size                      : 57.6 MiB (8%)
Language                         : English
Encoded date                     : UTC 2007-05-06 15:56:18
Tagged date                      : UTC 2007-05-06 15:56:18
Find all posts by this user
Add Thank You Quote this message in a reply
11-16-2011, 02:33 PM
Post: #2
RE: Uanble to play mp4
you are not alone, see mp4 crash, followed by very slow PCH operation. I have reported it last week Sad
Find all posts by this user
Add Thank You Quote this message in a reply
Post Reply 


Possibly Related Threads...
Thread: Author Replies: Views: Last Post
  [BD] Some BD Backups don't play mediaminer 0 255 02-16-2014 08:09 PM
Last Post: mediaminer
  A300 confuses my TV (ie, something wont play) narubonk 10 3,108 10-23-2013 07:00 PM
Last Post: Anik
  A300-- In recent weeks, many videos no longer play AtariBaby 5 1,246 09-09-2013 06:33 PM
Last Post: AtariBaby
  A300 suddenly can't play anything?? LandShark 0 704 08-15-2013 09:41 PM
Last Post: LandShark
  [MKV] C-300 doesn't play handbrake encoded videos anymore the_brad 3 1,424 07-15-2013 03:14 PM
Last Post: the_brad
  Manga episodes (MKV h264 FLAC) don't play theother 4 1,407 02-11-2013 08:39 AM
Last Post: theother
  Cannot Play BDJ Elvispookie 2 1,002 01-24-2013 12:40 AM
Last Post: Elvispookie
  can't play m2ts file dvas 0 854 01-19-2013 10:19 PM
Last Post: dvas
  How to turn off resume play? sdomic 3 1,066 01-02-2013 05:24 PM
Last Post: bcom
  Can't play AVATAR extended blu-ray iso or folder structur melgoth 4 1,817 12-31-2012 08:06 PM
Last Post: melgoth

Forum Jump: